<?xml version="1.0" standalone="no"?>
<!DOCTYPE svg PUBLIC "-//W3C//DTD SVG 1.1//EN" "http://www.w3.org/Graphics/SVG/1.1/DTD/svg11.dtd" >
<svg>
<metadata>
Created by FontForge 20120702 at Tue Sep 21 01:43:13 2021

Copyright 1990-2003 Bitstream Inc. All rights reserved.
</metadata>
<defs>
<font id="FuturaBT-Book" horiz-adv-x="1024" >
  <font-face 
    font-family="Futura Bk BT"
    font-weight="400"
    font-stretch="normal"
    units-per-em="2048"
    panose-1="2 11 5 2 2 2 4 2 3 3"
    ascent="1556"
    descent="-492"
    x-height="915"
    cap-height="1464"
    bbox="-342 -483 2253 1972"
    underline-thickness="117"
    underline-position="-165"
    unicode-range="U+0020-F002"
  />
<missing-glyph horiz-adv-x="1229" 
d="M102 -362v1806h1024v-1806h-1024zM217 -248h795v1577h-795v-1577z" />
    <glyph glyph-name=".notdef" horiz-adv-x="1229" 
d="M102 -362v1806h1024v-1806h-1024zM217 -248h795v1577h-795v-1577z" />
    <glyph glyph-name=".null" horiz-adv-x="0" 
 />
    <glyph glyph-name="nonmarkingreturn" horiz-adv-x="604" 
 />
    <glyph glyph-name="space" unicode=" " horiz-adv-x="604" 
 />
    <glyph glyph-name="exclam" unicode="!" horiz-adv-x="653" 
d="M209 80q0 49 35 84t84 35t83.5 -35t34.5 -84q0 -50 -34 -84.5t-84 -34.5t-84.5 34.5t-34.5 84.5zM248 332v1165h160v-1165h-160z" />
    <glyph glyph-name="quotedbl" unicode="&#x22;" horiz-adv-x="590" 
d="M496 1434v-553h-119v553h119zM211 1434v-553h-117v553h117z" />
    <glyph glyph-name="numbersign" unicode="#" horiz-adv-x="1575" 
d="M973 862h-264l-95 -272h263zM922 1456l-166 -471h260l168 471h143l-164 -471h307l-43 -123h-311l-94 -272h330l-43 -123h-332l-166 -469h-145l168 469h-265l-168 -469h-143l166 469h-320l43 123h320l96 272h-342l43 123h344l168 471h146z" />
    <glyph glyph-name="dollar" unicode="$" horiz-adv-x="1208" 
d="M614 877q212 -74 310 -187.5t98 -286.5q0 -186 -109 -304t-299 -136v-149h-79v147q-169 8 -273 96t-135 248l147 90q28 -130 92.5 -199t168.5 -81v604q-187 72 -275 172.5t-88 243.5q0 154 95 251.5t268 116.5v99h79l1 -99q122 -9 208.5 -64t137.5 -157l-150 -94
q-31 75 -80 116t-117 48v-475zM535 1354q-87 -17 -138 -71t-51 -130q0 -85 43.5 -141t145.5 -99v441zM614 115q120 23 178 92t58 186q0 103 -54.5 171t-181.5 120v-569z" />
    <glyph glyph-name="percent" unicode="%" horiz-adv-x="1516" 
d="M1466 340q0 -180 -78.5 -279.5t-220.5 -99.5q-141 0 -221 100t-80 279t80 279t221 100q142 0 220.5 -100t78.5 -279zM1167 63q74 0 114 72t40 205q0 137 -39 206.5t-115 69.5q-73 0 -113 -71.5t-40 -204.5t40 -205t113 -72zM358 823q74 0 114 72t40 205q0 137 -39 207.5
t-115 70.5q-73 0 -113 -72.5t-40 -205.5t40 -205t113 -72zM659 1100q0 -179 -79 -278t-222 -99q-142 0 -221.5 99t-79.5 278t80 279t221 100q142 0 221.5 -100t79.5 -279zM272 -39l842 1518h123l-840 -1518h-125z" />
    <glyph glyph-name="ampersand" unicode="&#x26;" horiz-adv-x="1370" 
d="M868 289l-354 428l-43 -29q-120 -82 -165.5 -148t-45.5 -147q0 -116 76.5 -193t191.5 -77q82 0 164 40t176 126zM575 897l64 37q68 42 102.5 95t34.5 116q0 75 -47 120.5t-125 45.5q-76 0 -124 -48t-48 -122q0 -37 13.5 -72t39.5 -65zM1106 0l-141 170
q-97 -98 -208 -147.5t-237 -49.5q-194 0 -314 115t-120 299q0 131 83.5 242.5t252.5 208.5l-60 67q-48 57 -71 116t-23 128q0 136 93.5 221.5t242.5 85.5q151 0 241.5 -84t90.5 -223q0 -108 -63.5 -195.5t-202.5 -171.5l319 -385q40 44 83 100.5t91 127.5l107 -117
q-43 -65 -89.5 -121.5t-97.5 -105.5l234 -281h-211z" />
    <glyph glyph-name="quotesingle" unicode="'" horiz-adv-x="305" 
d="M211 1434v-553h-117v553h117z" />
    <glyph glyph-name="parenleft" unicode="(" horiz-adv-x="590" 
d="M510 -393l-107 -56q-118 221 -177.5 468.5t-59.5 521.5q0 291 58.5 536t178.5 457l107 -49q-108 -213 -159.5 -443.5t-51.5 -500.5q0 -279 52 -508t159 -426z" />
    <glyph glyph-name="parenright" unicode=")" horiz-adv-x="590" 
d="M80 -393q107 197 159 426t52 508q0 270 -51.5 500.5t-159.5 443.5l106 49q121 -212 179.5 -457t58.5 -536q0 -274 -59.5 -521.5t-178.5 -468.5z" />
    <glyph glyph-name="asterisk" unicode="*" horiz-adv-x="848" 
d="M152 899l-50 88l224 129l-224 129l52 88l225 -131l-2 262h102l-2 -256l219 125l49 -90l-219 -127l219 -125l-49 -90l-217 125v-250h-102v254z" />
    <glyph glyph-name="plus" unicode="+" horiz-adv-x="1706" 
d="M913 1221v-551h539v-117h-539v-553h-118v553h-541v117h541v551h118z" />
    <glyph glyph-name="comma" unicode="," horiz-adv-x="604" 
d="M121 -291l190 545l170 -59l-245 -531z" />
    <glyph glyph-name="hyphen" unicode="-" horiz-adv-x="750" 
d="M141 535h467v-158h-467v158z" />
    <glyph glyph-name="period" unicode="." horiz-adv-x="604" 
d="M182 98q0 49 35 84t84 35q50 0 85.5 -34.5t35.5 -84.5q0 -49 -35 -82.5t-86 -33.5q-50 0 -84.5 33.5t-34.5 82.5z" />
    <glyph glyph-name="slash" unicode="/" horiz-adv-x="854" 
d="M717 1497h137l-719 -1687h-135z" />
    <glyph glyph-name="zero" unicode="0" horiz-adv-x="1208" 
d="M606 -39q-237 0 -373.5 202.5t-136.5 557.5q0 353 135.5 555.5t370.5 202.5q240 0 375 -200t135 -558q0 -357 -134.5 -558.5t-371.5 -201.5zM604 104q161 0 244.5 156.5t83.5 458.5q0 303 -83.5 460.5t-244.5 157.5q-155 0 -241.5 -161.5t-86.5 -452.5q0 -293 86.5 -456
t241.5 -163z" />
    <glyph glyph-name="one" unicode="1" horiz-adv-x="1208" 
d="M559 0v1298h-299l98 152h371v-1450h-170z" />
    <glyph glyph-name="two" unicode="2" horiz-adv-x="1208" 
d="M997 166v-166h-882l309 367q31 36 89 105q357 423 357 591q0 113 -79.5 184.5t-208.5 71.5q-139 0 -213 -77.5t-74 -223.5v-17h-164q0 7 -1 20t-1 19q0 208 121 323.5t338 115.5q213 0 333.5 -107.5t120.5 -298.5q0 -138 -81.5 -285.5t-288.5 -373.5l-230 -248h555z" />
    <glyph glyph-name="three" unicode="3" horiz-adv-x="1208" 
d="M113 371h178v-17q0 -112 73 -177.5t199 -65.5q145 0 224 73.5t79 208.5q0 142 -80.5 214.5t-238.5 72.5q-20 0 -30.5 -0.5t-20.5 -1.5v143q8 0 23.5 -1t23.5 -1q151 0 228 66t77 196q0 115 -70 182.5t-190 67.5q-128 0 -199.5 -62.5t-77.5 -181.5l-172 1
q10 189 126.5 290t326.5 101q202 0 320 -105t118 -284q0 -130 -68.5 -220t-191.5 -122q131 -22 205 -117.5t74 -243.5q0 -199 -130.5 -312.5t-361.5 -113.5q-203 0 -323.5 104t-120.5 279v27z" />
    <glyph glyph-name="four" unicode="4" horiz-adv-x="1208" 
d="M731 0v315h-686l784 1164h74v-1022h172v-142h-172v-315h-172zM731 457v643l-428 -643h428z" />
    <glyph glyph-name="five" unicode="5" horiz-adv-x="1208" 
d="M213 731l-33 6l174 713h643v-150h-524l-92 -376q50 26 107 39.5t120 13.5q215 0 340 -128.5t125 -348.5q0 -250 -144.5 -394.5t-393.5 -144.5q-151 0 -258.5 52.5t-182.5 162.5l123 143q49 -100 131.5 -153t190.5 -53q158 0 254 101t96 269q0 160 -99.5 256.5
t-265.5 96.5q-87 0 -165.5 -26.5t-145.5 -78.5z" />
    <glyph glyph-name="six" unicode="6" horiz-adv-x="1208" 
d="M299 426q0 -148 82 -234t221 -86q136 0 218.5 88.5t82.5 233.5q0 150 -83 237t-228 87q-131 0 -212 -90.5t-81 -235.5zM416 827q54 36 109 53t116 17q197 0 319.5 -125.5t122.5 -327.5q0 -221 -139 -352t-377 -131q-201 0 -324.5 132t-123.5 347q0 207 275 597l9 13
l334 472l152 -80z" />
    <glyph glyph-name="seven" unicode="7" horiz-adv-x="1208" 
d="M231 18l625 1280h-678v152h928l-731 -1505z" />
    <glyph glyph-name="eight" unicode="8" horiz-adv-x="1208" 
d="M606 1346q-120 0 -190 -65.5t-70 -178.5q0 -112 68 -175t188 -63q124 0 193 62.5t69 175.5t-69 178.5t-189 65.5zM604 102q145 0 226 78t81 217q0 141 -81.5 221t-225.5 80q-143 0 -225 -80.5t-82 -220.5q0 -139 81 -217t226 -78zM414 774q-124 39 -186 123.5t-62 214.5
q0 161 122 264t318 103q201 0 319.5 -104t118.5 -277q0 -119 -64.5 -204t-182.5 -120q143 -41 222 -142t79 -243q0 -200 -130.5 -314t-361.5 -114q-228 0 -360.5 114.5t-132.5 309.5q0 146 78.5 248t222.5 141z" />
    <glyph glyph-name="nine" unicode="9" horiz-adv-x="1208" 
d="M899 1014q0 148 -82 234.5t-221 86.5q-136 0 -218.5 -88t-82.5 -233q0 -151 82.5 -237.5t226.5 -86.5q131 0 213 90t82 234zM782 614q-54 -35 -109 -52t-116 -17q-197 0 -319.5 125.5t-122.5 326.5q0 222 138 352t376 130q201 0 324.5 -132.5t123.5 -347.5
q0 -207 -275 -597l-7 -10l-334 -472l-152 78z" />
    <glyph glyph-name="colon" unicode=":" horiz-adv-x="653" 
d="M209 772q0 49 35 84t84 35t83.5 -35t34.5 -84q0 -50 -34 -84.5t-84 -34.5t-84.5 34.5t-34.5 84.5zM209 100q0 49 34.5 83t84.5 34q49 0 83.5 -34t34.5 -83t-34 -83.5t-84 -34.5t-84.5 34.5t-34.5 83.5z" />
    <glyph glyph-name="semicolon" unicode=";" horiz-adv-x="653" 
d="M285 772q0 49 34.5 84t83.5 35q50 0 84.5 -35t34.5 -84q0 -50 -34 -84.5t-85 -34.5q-50 0 -84 34.5t-34 84.5zM131 -291l191 545l170 -59l-248 -531z" />
    <glyph glyph-name="less" unicode="&#x3c;" horiz-adv-x="1706" 
d="M1442 1018l-1000 -408l1000 -405v-129l-1178 483v103l1178 483v-127z" />
    <glyph glyph-name="equal" unicode="=" horiz-adv-x="1706" 
d="M1452 477v-117h-1198v117h1198zM1452 860v-117h-1198v117h1198z" />
    <glyph glyph-name="greater" unicode="&#x3e;" horiz-adv-x="1706" 
d="M1442 662v-103l-1178 -483v129l1000 405l-1000 408v127z" />
    <glyph glyph-name="question" unicode="?" horiz-adv-x="1067" 
d="M680 666h154v-33q0 -152 -80 -235t-228 -83q-138 0 -216.5 78t-78.5 215q0 91 50 163.5t194 172.5q16 11 45 31q189 127 189 221q0 69 -48 110.5t-129 41.5q-89 0 -137.5 -55.5t-48.5 -157.5h-162v26q0 152 95 244t251 92q165 0 259 -85.5t94 -233.5q0 -91 -55.5 -165.5
t-209.5 -176.5q-15 -11 -44 -29q-179 -116 -179 -219q0 -56 37.5 -91.5t95.5 -35.5q76 0 114 49t38 147v9zM391 80q0 49 35 84t84 35t84 -35t35 -84q0 -50 -34.5 -84.5t-84.5 -34.5t-84.5 34.5t-34.5 84.5z" />
    <glyph glyph-name="at" unicode="@" horiz-adv-x="2048" 
d="M1292 844l58 121h110l-141 -568q-6 -24 -9 -44t-3 -36q0 -44 27.5 -67t82.5 -23q45 0 100 24t103 64q89 76 139.5 196.5t50.5 254.5q0 266 -195.5 428t-518.5 162q-168 0 -312.5 -52t-259.5 -153q-140 -122 -211 -282.5t-71 -354.5q0 -173 60.5 -304t186.5 -230
q101 -81 240 -124.5t295 -43.5q172 0 334.5 48.5t296.5 139.5l45 -66q-147 -109 -313 -165t-347 -56q-191 0 -348 46.5t-276 138.5q-153 117 -228 272t-75 352q0 163 50.5 309t149.5 269q146 176 349.5 267t453.5 91q165 0 311 -43.5t248 -124.5q129 -99 195.5 -230
t66.5 -282q0 -169 -62.5 -308.5t-182.5 -236.5q-69 -55 -148.5 -83.5t-163.5 -28.5q-99 0 -148.5 39t-49.5 116q0 3 1 11t1 12q-51 -87 -127 -132.5t-170 -45.5q-153 0 -233.5 85t-80.5 247q0 230 137 389t332 159q91 0 153.5 -39.5t96.5 -117.5zM1202 473l60 242
q-17 90 -72 140t-135 50q-146 0 -244 -131.5t-98 -327.5q0 -110 51 -169.5t145 -59.5q102 0 183.5 70.5t109.5 185.5z" />
    <glyph glyph-name="A" unicode="A" horiz-adv-x="1280" 
d="M639 1137l-233 -539h466zM639 1522l666 -1522h-189l-190 449h-572l-190 -449h-189z" />
    <glyph glyph-name="B" unicode="B" horiz-adv-x="1151" 
d="M176 0v1464h305q161 0 237.5 -16.5t131.5 -56.5q70 -52 108.5 -133.5t38.5 -178.5q0 -116 -55.5 -194t-161.5 -109q130 -20 205.5 -116.5t75.5 -243.5q0 -88 -32 -168t-89 -137q-62 -61 -153 -86t-306 -25h-305zM346 686v-534h135q139 0 200.5 11t98.5 38q45 32 71 89
t26 126q0 80 -31 139t-90 92q-35 21 -81 30t-143 9h-51h-135zM346 1313v-490h135q186 0 262 54t76 182q0 141 -70.5 197.5t-267.5 56.5h-135z" />
    <glyph glyph-name="C" unicode="C" horiz-adv-x="1485" 
d="M1364 1114q-105 114 -224 168.5t-263 54.5q-116 0 -226.5 -47t-191.5 -131q-84 -87 -126 -194.5t-42 -237.5q0 -102 25 -188t75 -158q88 -125 216.5 -192.5t277.5 -67.5q140 0 260 58t219 173v-231q-109 -79 -234.5 -119.5t-259.5 -40.5q-116 0 -226 34.5t-206 100.5
q-160 111 -244.5 273t-84.5 356q0 169 56.5 307.5t172.5 251.5q112 108 248 161.5t297 53.5q127 0 246 -38.5t235 -119.5v-227z" />
    <glyph glyph-name="D" unicode="D" horiz-adv-x="1485" 
d="M352 164h111q270 0 374 23.5t173 80.5q90 75 137 193.5t47 271.5q0 154 -46.5 270.5t-137.5 192.5q-69 58 -175.5 82.5t-371.5 24.5h-111v-1139zM176 0v1464h281q312 0 439.5 -31.5t223.5 -105.5q126 -97 191 -248t65 -348q0 -196 -64.5 -346.5t-191.5 -247.5
q-96 -74 -218.5 -105.5t-381.5 -31.5h-63h-281z" />
    <glyph glyph-name="E" unicode="E" horiz-adv-x="1067" 
d="M176 0v1464h772v-159h-598v-420h598v-162h-598v-561h598v-162h-772z" />
    <glyph glyph-name="F" unicode="F" horiz-adv-x="1038" 
d="M176 0v1464h772v-159h-598v-420h598v-162h-598v-723h-174z" />
    <glyph glyph-name="G" unicode="G" horiz-adv-x="1667" 
d="M981 756h604v-49q0 -346 -196 -546t-535 -200q-103 0 -196.5 22t-172.5 64q-180 99 -278 273.5t-98 396.5q0 183 58.5 330.5t176.5 259.5q99 94 230 142t290 48q211 0 366 -76.5t257 -230.5l-146 -117q-79 133 -197 199.5t-274 66.5q-255 0 -414 -172t-159 -450
q0 -262 161.5 -430t411.5 -168q220 0 366.5 133.5t162.5 347.5h-418v156z" />
    <glyph glyph-name="H" unicode="H" horiz-adv-x="1479" 
d="M176 0v1464h174v-563h778v563h177v-1464h-177v735h-778v-735h-174z" />
    <glyph glyph-name="I" unicode="I" horiz-adv-x="530" 
d="M178 0v1464h174v-1464h-174z" />
    <glyph glyph-name="J" unicode="J" horiz-adv-x="793" 
d="M455 1464h176v-1142q0 -184 -81.5 -272.5t-250.5 -88.5q-90 0 -162.5 35.5t-136.5 109.5l115 115q54 -56 100 -80t96 -24q79 0 111.5 59t32.5 232v1056z" />
    <glyph glyph-name="K" unicode="K" horiz-adv-x="1210" 
d="M176 0v1464h172v-651l615 651h208l-628 -659l690 -805h-225l-660 788v-788h-172z" />
    <glyph glyph-name="L" unicode="L" horiz-adv-x="934" 
d="M176 0v1464h174v-1298h553v-166h-727z" />
    <glyph glyph-name="M" unicode="M" horiz-adv-x="1716" 
d="M858 -57l-455 1052l-184 -995h-170l297 1522l512 -1211l512 1211l297 -1522h-170l-186 995z" />
    <glyph glyph-name="N" unicode="N" horiz-adv-x="1587" 
d="M176 0v1522l1071 -1170v1112h166v-1521l-1071 1157v-1100h-166z" />
    <glyph glyph-name="O" unicode="O" horiz-adv-x="1782" 
d="M891 125q120 0 228.5 45.5t195.5 132.5q86 86 131 195t45 231q0 123 -45.5 234t-130.5 196q-86 86 -194.5 131t-229.5 45q-122 0 -231 -45t-193 -131q-86 -87 -131 -197t-45 -233q0 -122 44.5 -230t131.5 -196q88 -88 195.5 -133t228.5 -45zM1673 729q0 -157 -58 -296
t-169 -247t-255.5 -166.5t-299.5 -58.5t-298.5 58.5t-254.5 166.5q-112 109 -170.5 248t-58.5 295q0 157 58.5 296.5t170.5 248.5q110 107 254 165t299 58q156 0 300.5 -58t254.5 -165q111 -108 169 -247.5t58 -297.5z" />
    <glyph glyph-name="P" unicode="P" horiz-adv-x="1040" 
d="M346 657v-657h-170v1464h307q161 0 237 -17t132 -56q70 -50 109.5 -137t39.5 -193t-39.5 -193t-109.5 -137q-56 -40 -131.5 -57t-237.5 -17h-49h-88zM346 815h88q224 0 301.5 52.5t77.5 183.5q0 140 -79.5 197t-299.5 57h-88v-490z" />
    <glyph glyph-name="Q" unicode="Q" horiz-adv-x="1782" 
d="M1075 522l217 -233q94 74 144.5 187t50.5 247q0 90 -21 171.5t-61 147.5q-83 137 -217 212t-297 75q-121 0 -230.5 -45t-193.5 -129t-129 -193.5t-45 -230.5q0 -155 62.5 -279t187.5 -214q71 -52 156 -78.5t178 -26.5q82 0 152 16t130 50l-299 323h215zM1692 -141h-215
l-195 209q-87 -51 -190.5 -76t-225.5 -25q-124 0 -236.5 36.5t-207.5 107.5q-154 113 -233.5 271.5t-79.5 348.5q0 153 59 293t170 250q112 108 254 165.5t299 57.5q156 0 293 -51t248 -152q118 -107 180.5 -252.5t62.5 -312.5q0 -176 -67 -321.5t-195 -247.5z" />
    <glyph glyph-name="R" unicode="R" horiz-adv-x="1096" 
d="M176 0v1464h344q147 0 215.5 -16.5t120.5 -56.5q65 -51 101 -136.5t36 -189.5q0 -180 -100.5 -273.5t-294.5 -93.5h-31l559 -698h-221l-534 698h-25v-698h-170zM346 1317v-490h133q204 0 273 52.5t69 183.5q0 141 -71 197.5t-271 56.5h-133z" />
    <glyph glyph-name="S" unicode="S" horiz-adv-x="1053" 
d="M709 813q143 -61 215.5 -162t72.5 -239q0 -202 -128.5 -325.5t-340.5 -123.5q-173 0 -290 88.5t-158 251.5l158 78q32 -133 105.5 -201.5t184.5 -68.5q131 0 212 75.5t81 196.5q0 98 -56.5 170.5t-170.5 122.5l-178 76q-146 61 -217.5 157t-71.5 230q0 156 116 258
t296 102q132 0 228.5 -56t150.5 -165l-144 -92q-49 85 -110 126.5t-138 41.5q-98 0 -160.5 -60t-62.5 -153q0 -78 48 -135t149 -101z" />
    <glyph glyph-name="T" unicode="T" horiz-adv-x="1038" 
d="M432 0v1298h-414v166h1002v-166h-412v-1298h-176z" />
    <glyph glyph-name="U" unicode="U" horiz-adv-x="1475" 
d="M170 1464h176v-911q0 -222 94.5 -326t296.5 -104t296.5 104t94.5 326v911h177v-911q0 -297 -141.5 -444.5t-426.5 -147.5q-284 0 -425.5 147.5t-141.5 444.5v911z" />
    <glyph glyph-name="V" unicode="V" horiz-adv-x="1188" 
d="M594 -57l-619 1521h189l430 -1120l428 1120h188z" />
    <glyph glyph-name="W" unicode="W" horiz-adv-x="1870" 
d="M-14 1464h188l371 -1077l387 1135l391 -1135l373 1077h188l-567 -1521l-383 1132l-381 -1132z" />
    <glyph glyph-name="X" unicode="X" horiz-adv-x="1083" 
d="M-12 0l450 778l-420 686h209l314 -557l303 557h198l-415 -702l467 -762h-205l-361 631l-342 -631h-198z" />
    <glyph glyph-name="Y" unicode="Y" horiz-adv-x="1171" 
d="M498 0v670l-496 794h201l383 -635l381 635h200l-495 -794v-670h-174z" />
    <glyph glyph-name="Z" unicode="Z" horiz-adv-x="1159" 
d="M-10 0l823 1305h-668v159h963l-815 -1298h782v-166h-1085z" />
    <glyph glyph-name="bracketleft" unicode="[" horiz-adv-x="590" 
d="M330 -276h182v-136h-324v1909h324v-135h-182v-1638z" />
    <glyph glyph-name="backslash" unicode="\" horiz-adv-x="854" 
d="M717 -190l-717 1687h135l719 -1687h-137z" />
    <glyph glyph-name="bracketright" unicode="]" horiz-adv-x="590" 
d="M260 -276v1638h-182v135h323v-1909h-323v136h182z" />
    <glyph glyph-name="asciicircum" unicode="^" horiz-adv-x="2048" 
d="M1104 1458l520 -557h-158l-442 438l-442 -438h-160l520 557h162z" />
    <glyph glyph-name="underscore" unicode="_" 
d="M1024 -365v-118h-1024v118h1024z" />
    <glyph glyph-name="grave" unicode="`" 
d="M655 1059h-120l-285 348h201z" />
    <glyph glyph-name="a" unicode="a" horiz-adv-x="1165" 
d="M860 449q0 155 -84.5 249.5t-220.5 94.5q-141 0 -220 -87t-79 -243q0 -166 79.5 -256t225.5 -90q140 0 219.5 87.5t79.5 244.5zM1012 915v-915h-152v166q-55 -100 -140.5 -152.5t-191.5 -52.5q-197 0 -317.5 135.5t-120.5 358.5q0 226 117 359.5t313 133.5
q115 0 199.5 -51.5t136.5 -153.5v172h156z" />
    <glyph glyph-name="b" unicode="b" horiz-adv-x="1171" 
d="M309 453q0 -160 82 -250t225 -90q140 0 219.5 95.5t79.5 264.5q0 150 -78 235t-216 85q-140 0 -226 -93.5t-86 -246.5zM160 1550h155v-807q53 102 137 153.5t197 51.5q197 0 314.5 -134t117.5 -359q0 -223 -120 -358.5t-318 -135.5q-106 0 -193 53.5t-141 151.5v-166
h-149v1550z" />
    <glyph glyph-name="c" unicode="c" horiz-adv-x="920" 
d="M862 217v-182q-62 -37 -139.5 -55.5t-167.5 -18.5q-212 0 -341.5 134.5t-129.5 353.5q0 220 134 359.5t343 139.5q76 0 148.5 -16t136.5 -47v-168q-60 39 -124 59.5t-130 20.5q-154 0 -247 -96.5t-93 -256.5q0 -141 93.5 -236t234.5 -95q71 0 139 25t143 79z" />
    <glyph glyph-name="d" unicode="d" horiz-adv-x="1171" 
d="M860 453q0 153 -85 246.5t-224 93.5t-217 -85t-78 -235q0 -169 79 -264.5t218 -95.5q144 0 225.5 90t81.5 250zM1012 1550v-1550h-152v166q-54 -99 -140 -152t-192 -53q-197 0 -317.5 135.5t-120.5 358.5q0 225 118 359t314 134q114 0 198 -51.5t136 -153.5v807h156z" />
    <glyph glyph-name="e" unicode="e" horiz-adv-x="1053" 
d="M809 561q-8 121 -80.5 186.5t-198.5 65.5q-114 0 -190 -68.5t-88 -183.5h557zM977 434h-725v-14q0 -147 84 -237.5t219 -90.5q92 0 166 49.5t131 149.5l119 -80q-69 -124 -176 -187t-248 -63q-209 0 -338 138t-129 362q0 215 128 352t329 137q203 0 321.5 -130
t118.5 -355v-31z" />
    <glyph glyph-name="f" unicode="f" horiz-adv-x="592" 
d="M201 0v786h-176v129h176v265q0 228 57.5 308.5t206.5 80.5q37 0 70.5 -5t64.5 -16v-162q-30 17 -60.5 25t-62.5 8q-69 0 -95 -44t-26 -216v-244h244v-129h-240v-786h-159z" />
    <glyph glyph-name="g" unicode="g" horiz-adv-x="1169" 
d="M860 455q0 154 -84 248t-221 94q-141 0 -220 -87t-79 -243q0 -166 79.5 -256t225.5 -90q140 0 219.5 88.5t79.5 245.5zM1012 915v-899q0 -149 -20 -212t-66 -113q-64 -69 -156.5 -103t-212.5 -34q-208 0 -324.5 95t-121.5 269h176v-12q0 -103 71 -159t201 -56
q94 0 160.5 30.5t101.5 90.5q21 34 30 79t9 129v72v82q-53 -98 -139 -150.5t-193 -52.5q-197 0 -317.5 134t-120.5 356q0 224 117 355.5t313 131.5q114 0 200 -51.5t136 -151.5v170h156z" />
    <glyph glyph-name="h" unicode="h" horiz-adv-x="1141" 
d="M160 0v1550h153v-776q59 88 142 131t192 43q162 0 253 -86t91 -239v-623h-160v539q0 139 -58.5 206.5t-180.5 67.5q-70 0 -127.5 -25.5t-95.5 -72.5q-29 -36 -41.5 -82t-12.5 -160v-473h-155z" />
    <glyph glyph-name="i" unicode="i" horiz-adv-x="496" 
d="M131 1356q0 47 33.5 80.5t81.5 33.5q47 0 80.5 -34t33.5 -82q0 -47 -33 -80t-81 -33t-81.5 33t-33.5 82zM168 0v915h158v-915h-158z" />
    <glyph glyph-name="j" unicode="j" horiz-adv-x="496" 
d="M131 1356q0 47 33.5 80.5t81.5 33.5q47 0 80.5 -34t33.5 -82q0 -47 -33 -80t-81 -33t-81.5 33t-33.5 82zM168 -446v1361h158v-1361h-158z" />
    <glyph glyph-name="k" unicode="k" horiz-adv-x="1010" 
d="M162 0v1550h157v-1050l441 415h209l-457 -419l498 -496h-219l-472 483v-483h-157z" />
    <glyph glyph-name="l" unicode="l" horiz-adv-x="496" 
d="M168 0v1550h160v-1550h-160z" />
    <glyph glyph-name="m" unicode="m" horiz-adv-x="1737" 
d="M1434 0v539q0 139 -56 206.5t-172 67.5q-63 0 -116.5 -25.5t-90.5 -72.5q-27 -36 -39 -84t-12 -158v-473h-151v539q0 139 -56 206.5t-172 67.5q-63 0 -117.5 -25.5t-91.5 -72.5q-26 -35 -37.5 -81t-11.5 -161v-473h-151v915h153v-141q57 88 136 131t182 43
q111 0 189 -47.5t118 -138.5q59 94 139.5 140t186.5 46q153 0 239 -86t86 -239v-623h-155z" />
    <glyph glyph-name="n" unicode="n" horiz-adv-x="1141" 
d="M160 0v915h153v-141q59 88 142 131t192 43q162 0 253 -86t91 -239v-623h-160v539q0 139 -58.5 206.5t-180.5 67.5q-70 0 -127.5 -25.5t-95.5 -72.5q-29 -36 -41.5 -82t-12.5 -160v-473h-155z" />
    <glyph glyph-name="o" unicode="o" horiz-adv-x="1165" 
d="M252 455q0 -145 97 -245.5t235 -100.5q137 0 233 100.5t96 245.5t-96 245.5t-233 100.5q-139 0 -235.5 -100.5t-96.5 -245.5zM86 455q0 101 37 190.5t108 159.5t161 106.5t192 36.5q100 0 189.5 -37t162.5 -108q71 -69 108 -158.5t37 -189.5t-37 -188.5t-108 -157.5
q-73 -72 -163.5 -110t-188.5 -38q-101 0 -191.5 37.5t-161.5 107.5q-71 72 -108 160t-37 189z" />
    <glyph glyph-name="p" unicode="p" horiz-adv-x="1171" 
d="M311 455q0 -154 85 -247t225 -93q137 0 215.5 85t78.5 236q0 169 -78.5 265t-218.5 96q-143 0 -225 -91t-82 -251zM160 -446v1361h149v-172q53 99 140 152t194 53q198 0 318 -135t120 -358q0 -227 -117.5 -360.5t-314.5 -133.5q-113 0 -197 51.5t-137 153.5v-612h-155z
" />
    <glyph glyph-name="q" unicode="q" horiz-adv-x="1171" 
d="M860 455q0 160 -81.5 251t-225.5 91q-139 0 -219 -96t-80 -265q0 -151 78.5 -236t216.5 -85q140 0 225.5 93t85.5 247zM1012 -446h-156v612q-52 -102 -136 -153.5t-198 -51.5q-197 0 -314.5 133.5t-117.5 360.5q0 223 120 358t318 135q107 0 193 -53t139 -152v172h152
v-1361z" />
    <glyph glyph-name="r" unicode="r" horiz-adv-x="719" 
d="M162 0v915h139v-190q63 119 134 170t173 51q28 0 54 -4.5t52 -13.5l-52 -141q-27 9 -51 13.5t-46 4.5q-124 0 -186 -89.5t-62 -269.5v-446h-155z" />
    <glyph glyph-name="s" unicode="s" horiz-adv-x="834" 
d="M63 154l134 90q38 -73 96 -109.5t137 -36.5q77 0 124.5 38t47.5 100q0 48 -32.5 80t-111.5 59l-26 9q-334 115 -334 288q0 122 90 199t234 77q119 0 204 -47.5t122 -134.5l-127 -78q-28 63 -82.5 97t-126.5 34q-69 0 -112.5 -38.5t-43.5 -98.5q0 -84 182 -141
q34 -11 54 -17q149 -48 207.5 -109.5t58.5 -162.5q0 -130 -92.5 -210.5t-241.5 -80.5q-128 0 -217.5 48t-143.5 145z" />
    <glyph glyph-name="t" unicode="t" horiz-adv-x="530" 
d="M184 786h-168v129h168v369h160v-369h168v-129h-168v-786h-160v786z" />
    <glyph glyph-name="u" unicode="u" horiz-adv-x="1120" 
d="M307 915v-450q0 -197 58.5 -275.5t197.5 -78.5t196.5 77.5t57.5 276.5v450h160v-534q0 -207 -106 -313.5t-312 -106.5q-204 0 -310 107t-106 313v534h164z" />
    <glyph glyph-name="v" unicode="v" horiz-adv-x="920" 
d="M461 -57l-453 972h176l275 -639l276 639h176z" />
    <glyph glyph-name="w" unicode="w" horiz-adv-x="1417" 
d="M721 948l274 -657l246 624h176l-407 -972l-301 702l-301 -702l-408 972h174l244 -624l278 657h25z" />
    <glyph glyph-name="x" unicode="x" horiz-adv-x="887" 
d="M0 0l352 473l-342 442h195l237 -327l240 327h195l-345 -442l355 -473h-195l-250 354l-247 -354h-195z" />
    <glyph glyph-name="y" unicode="y" horiz-adv-x="901" 
d="M123 -446l248 536l-359 825h181l266 -657l282 657h172l-614 -1361h-176z" />
    <glyph glyph-name="z" unicode="z" horiz-adv-x="883" 
d="M31 0l524 778h-492v137h768l-524 -778h520v-137h-796z" />
    <glyph glyph-name="braceleft" unicode="{" 
d="M858 1350q-8 0 -23 1t-22 1q-121 0 -164 -47t-43 -197v-242q0 -166 -43.5 -235.5t-154.5 -100.5q111 -30 154.5 -99.5t43.5 -235.5v-242q0 -149 43.5 -195.5t169.5 -46.5h39v-125h-35q-99 0 -159.5 12t-102.5 40q-55 36 -77.5 100t-22.5 213v244q0 152 -55 213t-189 61
q-7 0 -22 -1t-23 -1v127q8 0 23 -1t22 -1q134 0 189 61.5t55 214.5v244q0 153 22.5 215.5t77.5 97.5q42 28 102 40t160 12h35v-127z" />
    <glyph glyph-name="bar" unicode="|" 
d="M575 1565v-2048h-126v2048h126z" />
    <glyph glyph-name="braceright" unicode="}" 
d="M563 1112v-244q0 -152 55.5 -214t190.5 -62q7 0 22 1t23 1v-127q-8 0 -23 1t-22 1q-135 0 -190.5 -62t-55.5 -214v-242q0 -153 -22 -216.5t-76 -99.5q-39 -26 -97.5 -37.5t-160.5 -11.5h-41v125q8 0 23 -1t22 -1q120 0 163.5 47.5t43.5 198.5v240q0 166 43.5 235.5
t154.5 99.5q-111 31 -154.5 100.5t-43.5 235.5v242q0 149 -44 196.5t-169 47.5h-39v125h35q100 0 161 -12.5t103 -39.5q54 -35 76 -98t22 -215z" />
    <glyph glyph-name="asciitilde" unicode="~" horiz-adv-x="1706" 
d="M1530 627q-101 -72 -197.5 -108t-189.5 -36q-43 0 -90.5 9t-100.5 26q-30 10 -87 31q-202 72 -302 72q-83 0 -173.5 -37.5t-211.5 -122.5v133q105 73 202 109t185 36q56 0 116.5 -12.5t174.5 -52.5q14 -5 44 -16q158 -58 245 -58q84 0 174.5 37t210.5 121v-131z" />
    <glyph glyph-name="Adieresis" unicode="&#xc4;" horiz-adv-x="1280" 
d="M639 1137l-233 -539h466zM639 1522l666 -1522h-189l-190 449h-572l-190 -449h-189zM711 1774q0 45 33.5 78.5t78.5 33.5q46 0 79.5 -33t33.5 -79q0 -49 -32 -81t-81 -32q-48 0 -80 32t-32 81zM346 1774q0 44 34.5 78t80.5 34t78 -33t32 -79q0 -50 -30.5 -81.5
t-79.5 -31.5q-50 0 -82.5 32t-32.5 81z" />
    <glyph glyph-name="Aring" unicode="&#xc5;" horiz-adv-x="1280" 
d="M518 1733q0 -53 35.5 -89t87.5 -36q53 0 90 36.5t37 88.5q0 51 -37.5 88t-89.5 37q-51 0 -87 -36.5t-36 -88.5zM401 1733q0 101 69.5 170t170.5 69t170.5 -69t69.5 -170q0 -102 -69.5 -171t-170.5 -69t-170.5 69t-69.5 171zM629 1460h26l650 -1460h-189l-190 449h-572
l-190 -449h-189zM639 1137l-233 -539h466z" />
    <glyph glyph-name="Ccedilla" unicode="&#xc7;" horiz-adv-x="1485" 
d="M1364 1114q-105 114 -224 168.5t-263 54.5q-116 0 -226.5 -47t-191.5 -131q-84 -87 -126 -194.5t-42 -237.5q0 -102 25 -188t75 -158q88 -125 216.5 -192.5t277.5 -67.5q140 0 260 58t219 173v-231q-109 -79 -234.5 -119.5t-259.5 -40.5q-116 0 -226 34.5t-206 100.5
q-160 111 -244.5 273t-84.5 356q0 169 56.5 307.5t172.5 251.5q112 108 248 161.5t297 53.5q127 0 246 -38.5t235 -119.5v-227zM612 -426v100q79 -18 143 -28.5t103 -10.5q60 0 90.5 20.5t30.5 61.5q0 44 -32.5 65t-101.5 21q-20 0 -31 -0.5t-22 -0.5v198h76v-102h29
q109 0 166 -46t57 -135q0 -91 -64 -139.5t-186 -48.5q-50 0 -115.5 11.5t-142.5 33.5z" />
    <glyph glyph-name="Eacute" unicode="&#xc9;" horiz-adv-x="1067" 
d="M176 0v1464h772v-159h-598v-420h598v-162h-598v-561h598v-162h-772zM424 1610l204 348h201l-285 -348h-120z" />
    <glyph glyph-name="Ntilde" unicode="&#xd1;" horiz-adv-x="1587" 
d="M176 0v1522l1071 -1170v1112h166v-1521l-1071 1157v-1100h-166zM1088 1888q-20 -102 -70.5 -155.5t-126.5 -53.5q-13 0 -30 3t-36 8l-96 26q-13 4 -25.5 6.5t-23.5 2.5q-31 0 -53.5 -17.5t-36.5 -50.5h-88q18 99 68 152t125 53q17 0 32 -2t27 -6l98 -29q23 -6 34 -8
t20 -2q33 0 56.5 18t37.5 55h88z" />
    <glyph glyph-name="Odieresis" unicode="&#xd6;" horiz-adv-x="1782" 
d="M891 125q120 0 228.5 45.5t195.5 132.5q86 86 131 195t45 231q0 123 -45.5 234t-130.5 196q-86 86 -194.5 131t-229.5 45q-122 0 -231 -45t-193 -131q-86 -87 -131 -197t-45 -233q0 -122 44.5 -230t131.5 -196q88 -88 195.5 -133t228.5 -45zM1673 729q0 -157 -58 -296
t-169 -247t-255.5 -166.5t-299.5 -58.5t-298.5 58.5t-254.5 166.5q-112 109 -170.5 248t-58.5 295q0 157 58.5 296.5t170.5 248.5q110 107 254 165t299 58q156 0 300.5 -58t254.5 -165q111 -108 169 -247.5t58 -297.5zM961 1774q0 45 33.5 78.5t78.5 33.5q46 0 79.5 -33
t33.5 -79q0 -49 -32 -81t-81 -32q-48 0 -80 32t-32 81zM596 1774q0 44 34.5 78t80.5 34t78 -33t32 -79q0 -50 -30.5 -81.5t-79.5 -31.5q-50 0 -82.5 32t-32.5 81z" />
    <glyph glyph-name="Udieresis" unicode="&#xdc;" horiz-adv-x="1475" 
d="M170 1464h176v-911q0 -222 94.5 -326t296.5 -104t296.5 104t94.5 326v911h177v-911q0 -297 -141.5 -444.5t-426.5 -147.5q-284 0 -425.5 147.5t-141.5 444.5v911zM807 1774q0 45 33.5 78.5t78.5 33.5q46 0 79.5 -33t33.5 -79q0 -49 -32 -81t-81 -32q-48 0 -80 32t-32 81z
M442 1774q0 44 34.5 78t80.5 34t78 -33t32 -79q0 -50 -30.5 -81.5t-79.5 -31.5q-50 0 -82.5 32t-32.5 81z" />
    <glyph glyph-name="aacute" unicode="&#xe1;" horiz-adv-x="1165" 
d="M860 449q0 155 -84.5 249.5t-220.5 94.5q-141 0 -220 -87t-79 -243q0 -166 79.5 -256t225.5 -90q140 0 219.5 87.5t79.5 244.5zM1012 915v-915h-152v166q-55 -100 -140.5 -152.5t-191.5 -52.5q-197 0 -317.5 135.5t-120.5 358.5q0 226 117 359.5t313 133.5
q115 0 199.5 -51.5t136.5 -153.5v172h156zM441 1059l204 348h201l-285 -348h-120z" />
    <glyph glyph-name="agrave" unicode="&#xe0;" horiz-adv-x="1165" 
d="M860 449q0 155 -84.5 249.5t-220.5 94.5q-141 0 -220 -87t-79 -243q0 -166 79.5 -256t225.5 -90q140 0 219.5 87.5t79.5 244.5zM1012 915v-915h-152v166q-55 -100 -140.5 -152.5t-191.5 -52.5q-197 0 -317.5 135.5t-120.5 358.5q0 226 117 359.5t313 133.5
q115 0 199.5 -51.5t136.5 -153.5v172h156zM727 1059h-120l-285 348h201z" />
    <glyph glyph-name="acircumflex" unicode="&#xe2;" horiz-adv-x="1165" 
d="M860 449q0 155 -84.5 249.5t-220.5 94.5q-141 0 -220 -87t-79 -243q0 -166 79.5 -256t225.5 -90q140 0 219.5 87.5t79.5 244.5zM1012 915v-915h-152v166q-55 -100 -140.5 -152.5t-191.5 -52.5q-197 0 -317.5 135.5t-120.5 358.5q0 226 117 359.5t313 133.5
q115 0 199.5 -51.5t136.5 -153.5v172h156zM289 1059l197 348h196l197 -348h-123l-172 229l-174 -229h-121z" />
    <glyph glyph-name="adieresis" unicode="&#xe4;" horiz-adv-x="1165" 
d="M860 449q0 155 -84.5 249.5t-220.5 94.5q-141 0 -220 -87t-79 -243q0 -166 79.5 -256t225.5 -90q140 0 219.5 87.5t79.5 244.5zM1012 915v-915h-152v166q-55 -100 -140.5 -152.5t-191.5 -52.5q-197 0 -317.5 135.5t-120.5 358.5q0 226 117 359.5t313 133.5
q115 0 199.5 -51.5t136.5 -153.5v172h156zM654 1223q0 45 33.5 78.5t78.5 33.5q46 0 79.5 -33t33.5 -79q0 -49 -32 -81t-81 -32q-48 0 -80 32t-32 81zM289 1223q0 44 34.5 78t80.5 34t78 -33t32 -79q0 -50 -30.5 -81.5t-79.5 -31.5q-50 0 -82.5 32t-32.5 81z" />
    <glyph glyph-name="atilde" unicode="&#xe3;" horiz-adv-x="1165" 
d="M860 449q0 155 -84.5 249.5t-220.5 94.5q-141 0 -220 -87t-79 -243q0 -166 79.5 -256t225.5 -90q140 0 219.5 87.5t79.5 244.5zM1012 915v-915h-152v166q-55 -100 -140.5 -152.5t-191.5 -52.5q-197 0 -317.5 135.5t-120.5 358.5q0 226 117 359.5t313 133.5
q115 0 199.5 -51.5t136.5 -153.5v172h156zM877 1337q-20 -102 -70.5 -155.5t-126.5 -53.5q-13 0 -30 3t-36 8l-96 26q-13 4 -25.5 6.5t-23.5 2.5q-31 0 -53.5 -17.5t-36.5 -50.5h-88q18 99 68 152t125 53q17 0 32 -2t27 -6l98 -29q23 -6 34 -8t20 -2q33 0 56.5 18t37.5 55
h88z" />
    <glyph glyph-name="aring" unicode="&#xe5;" horiz-adv-x="1165" 
d="M1012 915v-915h-152v166q-55 -100 -140.5 -152.5t-191.5 -52.5q-197 0 -317.5 135.5t-120.5 358.5q0 226 117 359.5t313 133.5q115 0 199.5 -51.5t136.5 -153.5v172h156zM860 449q0 155 -84.5 249.5t-220.5 94.5q-141 0 -220 -87t-79 -243q0 -166 79.5 -256t225.5 -90
q140 0 219.5 87.5t79.5 244.5zM430 1255q0 -52 35.5 -88.5t87.5 -36.5t89.5 37t37.5 88t-37.5 88t-89.5 37q-51 0 -87 -36.5t-36 -88.5zM313 1253q0 102 69.5 171t170.5 69t170.5 -69t69.5 -171q0 -101 -69.5 -170t-170.5 -69t-170.5 69t-69.5 170z" />
    <glyph glyph-name="ccedilla" unicode="&#xe7;" horiz-adv-x="920" 
d="M862 217v-182q-62 -37 -139.5 -55.5t-167.5 -18.5q-212 0 -341.5 134.5t-129.5 353.5q0 220 134 359.5t343 139.5q76 0 148.5 -16t136.5 -47v-168q-60 39 -124 59.5t-130 20.5q-154 0 -247 -96.5t-93 -256.5q0 -141 93.5 -236t234.5 -95q71 0 139 25t143 79zM276 -426
v100q79 -18 143 -28.5t103 -10.5q60 0 90.5 20.5t30.5 61.5q0 44 -32.5 65t-101.5 21q-20 0 -31 -0.5t-22 -0.5v198h76v-102h29q109 0 166 -46t57 -135q0 -91 -64 -139.5t-186 -48.5q-50 0 -115.5 11.5t-142.5 33.5z" />
    <glyph glyph-name="eacute" unicode="&#xe9;" horiz-adv-x="1053" 
d="M809 561q-8 121 -80.5 186.5t-198.5 65.5q-114 0 -190 -68.5t-88 -183.5h557zM977 434h-725v-14q0 -147 84 -237.5t219 -90.5q92 0 166 49.5t131 149.5l119 -80q-69 -124 -176 -187t-248 -63q-209 0 -338 138t-129 362q0 215 128 352t329 137q203 0 321.5 -130
t118.5 -355v-31zM383 1059l204 348h201l-285 -348h-120z" />
    <glyph glyph-name="egrave" unicode="&#xe8;" horiz-adv-x="1053" 
d="M809 561q-8 121 -80.5 186.5t-198.5 65.5q-114 0 -190 -68.5t-88 -183.5h557zM977 434h-725v-14q0 -147 84 -237.5t219 -90.5q92 0 166 49.5t131 149.5l119 -80q-69 -124 -176 -187t-248 -63q-209 0 -338 138t-129 362q0 215 128 352t329 137q203 0 321.5 -130
t118.5 -355v-31zM669 1059h-120l-285 348h201z" />
    <glyph glyph-name="ecircumflex" unicode="&#xea;" horiz-adv-x="1053" 
d="M809 561q-8 121 -80.5 186.5t-198.5 65.5q-114 0 -190 -68.5t-88 -183.5h557zM977 434h-725v-14q0 -147 84 -237.5t219 -90.5q92 0 166 49.5t131 149.5l119 -80q-69 -124 -176 -187t-248 -63q-209 0 -338 138t-129 362q0 215 128 352t329 137q203 0 321.5 -130
t118.5 -355v-31zM231 1059l197 348h196l197 -348h-123l-172 229l-174 -229h-121z" />
    <glyph glyph-name="edieresis" unicode="&#xeb;" horiz-adv-x="1053" 
d="M809 561q-8 121 -80.5 186.5t-198.5 65.5q-114 0 -190 -68.5t-88 -183.5h557zM977 434h-725v-14q0 -147 84 -237.5t219 -90.5q92 0 166 49.5t131 149.5l119 -80q-69 -124 -176 -187t-248 -63q-209 0 -338 138t-129 362q0 215 128 352t329 137q203 0 321.5 -130
t118.5 -355v-31zM596 1223q0 45 33.5 78.5t78.5 33.5q46 0 79.5 -33t33.5 -79q0 -49 -32 -81t-81 -32q-48 0 -80 32t-32 81zM231 1223q0 44 34.5 78t80.5 34t78 -33t32 -79q0 -50 -30.5 -81.5t-79.5 -31.5q-50 0 -82.5 32t-32.5 81z" />
    <glyph glyph-name="iacute" unicode="&#xed;" horiz-adv-x="496" 
d="M168 0v915h158v-915h-158zM105 1059l204 348h201l-285 -348h-120z" />
    <glyph glyph-name="igrave" unicode="&#xec;" horiz-adv-x="496" 
d="M168 0v915h158v-915h-158zM391 1059h-120l-285 348h201z" />
    <glyph glyph-name="icircumflex" unicode="&#xee;" horiz-adv-x="496" 
d="M168 0v915h158v-915h-158zM-47 1059l197 348h196l197 -348h-123l-172 229l-174 -229h-121z" />
    <glyph glyph-name="idieresis" unicode="&#xef;" horiz-adv-x="496" 
d="M168 0v915h158v-915h-158zM318 1223q0 45 33.5 78.5t78.5 33.5q46 0 79.5 -33t33.5 -79q0 -49 -32 -81t-81 -32q-48 0 -80 32t-32 81zM-47 1223q0 44 34.5 78t80.5 34t78 -33t32 -79q0 -50 -30.5 -81.5t-79.5 -31.5q-50 0 -82.5 32t-32.5 81z" />
    <glyph glyph-name="ntilde" unicode="&#xf1;" horiz-adv-x="1141" 
d="M160 0v915h153v-141q59 88 142 131t192 43q162 0 253 -86t91 -239v-623h-160v539q0 139 -58.5 206.5t-180.5 67.5q-70 0 -127.5 -25.5t-95.5 -72.5q-29 -36 -41.5 -82t-12.5 -160v-473h-155zM871 1337q-20 -102 -70.5 -155.5t-126.5 -53.5q-13 0 -30 3t-36 8l-96 26
q-13 4 -25.5 6.5t-23.5 2.5q-31 0 -53.5 -17.5t-36.5 -50.5h-88q18 99 68 152t125 53q17 0 32 -2t27 -6l98 -29q23 -6 34 -8t20 -2q33 0 56.5 18t37.5 55h88z" />
    <glyph glyph-name="oacute" unicode="&#xf3;" horiz-adv-x="1165" 
d="M252 455q0 -145 97 -245.5t235 -100.5q137 0 233 100.5t96 245.5t-96 245.5t-233 100.5q-139 0 -235.5 -100.5t-96.5 -245.5zM86 455q0 101 37 190.5t108 159.5t161 106.5t192 36.5q100 0 189.5 -37t162.5 -108q71 -69 108 -158.5t37 -189.5t-37 -188.5t-108 -157.5
q-73 -72 -163.5 -110t-188.5 -38q-101 0 -191.5 37.5t-161.5 107.5q-71 72 -108 160t-37 189zM441 1059l204 348h201l-285 -348h-120z" />
    <glyph glyph-name="ograve" unicode="&#xf2;" horiz-adv-x="1165" 
d="M252 455q0 -145 97 -245.5t235 -100.5q137 0 233 100.5t96 245.5t-96 245.5t-233 100.5q-139 0 -235.5 -100.5t-96.5 -245.5zM86 455q0 101 37 190.5t108 159.5t161 106.5t192 36.5q100 0 189.5 -37t162.5 -108q71 -69 108 -158.5t37 -189.5t-37 -188.5t-108 -157.5
q-73 -72 -163.5 -110t-188.5 -38q-101 0 -191.5 37.5t-161.5 107.5q-71 72 -108 160t-37 189zM727 1059h-120l-285 348h201z" />
    <glyph glyph-name="ocircumflex" unicode="&#xf4;" horiz-adv-x="1165" 
d="M252 455q0 -145 97 -245.5t235 -100.5q137 0 233 100.5t96 245.5t-96 245.5t-233 100.5q-139 0 -235.5 -100.5t-96.5 -245.5zM86 455q0 101 37 190.5t108 159.5t161 106.5t192 36.5q100 0 189.5 -37t162.5 -108q71 -69 108 -158.5t37 -189.5t-37 -188.5t-108 -157.5
q-73 -72 -163.5 -110t-188.5 -38q-101 0 -191.5 37.5t-161.5 107.5q-71 72 -108 160t-37 189zM289 1059l197 348h196l197 -348h-123l-172 229l-174 -229h-121z" />
    <glyph glyph-name="odieresis" unicode="&#xf6;" horiz-adv-x="1165" 
d="M252 455q0 -145 97 -245.5t235 -100.5q137 0 233 100.5t96 245.5t-96 245.5t-233 100.5q-139 0 -235.5 -100.5t-96.5 -245.5zM86 455q0 101 37 190.5t108 159.5t161 106.5t192 36.5q100 0 189.5 -37t162.5 -108q71 -69 108 -158.5t37 -189.5t-37 -188.5t-108 -157.5
q-73 -72 -163.5 -110t-188.5 -38q-101 0 -191.5 37.5t-161.5 107.5q-71 72 -108 160t-37 189zM654 1223q0 45 33.5 78.5t78.5 33.5q46 0 79.5 -33t33.5 -79q0 -49 -32 -81t-81 -32q-48 0 -80 32t-32 81zM289 1223q0 44 34.5 78t80.5 34t78 -33t32 -79q0 -50 -30.5 -81.5
t-79.5 -31.5q-50 0 -82.5 32t-32.5 81z" />
    <glyph glyph-name="otilde" unicode="&#xf5;" horiz-adv-x="1165" 
d="M252 455q0 -145 97 -245.5t235 -100.5q137 0 233 100.5t96 245.5t-96 245.5t-233 100.5q-139 0 -235.5 -100.5t-96.5 -245.5zM86 455q0 101 37 190.5t108 159.5t161 106.5t192 36.5q100 0 189.5 -37t162.5 -108q71 -69 108 -158.5t37 -189.5t-37 -188.5t-108 -157.5
q-73 -72 -163.5 -110t-188.5 -38q-101 0 -191.5 37.5t-161.5 107.5q-71 72 -108 160t-37 189zM877 1337q-20 -102 -70.5 -155.5t-126.5 -53.5q-13 0 -30 3t-36 8l-96 26q-13 4 -25.5 6.5t-23.5 2.5q-31 0 -53.5 -17.5t-36.5 -50.5h-88q18 99 68 152t125 53q17 0 32 -2t27 -6
l98 -29q23 -6 34 -8t20 -2q33 0 56.5 18t37.5 55h88z" />
    <glyph glyph-name="uacute" unicode="&#xfa;" horiz-adv-x="1120" 
d="M307 915v-450q0 -197 58.5 -275.5t197.5 -78.5t196.5 77.5t57.5 276.5v450h160v-534q0 -207 -106 -313.5t-312 -106.5q-204 0 -310 107t-106 313v534h164zM418 1059l204 348h201l-285 -348h-120z" />
    <glyph glyph-name="ugrave" unicode="&#xf9;" horiz-adv-x="1120" 
d="M307 915v-450q0 -197 58.5 -275.5t197.5 -78.5t196.5 77.5t57.5 276.5v450h160v-534q0 -207 -106 -313.5t-312 -106.5q-204 0 -310 107t-106 313v534h164zM704 1059h-120l-285 348h201z" />
    <glyph glyph-name="ucircumflex" unicode="&#xfb;" horiz-adv-x="1120" 
d="M307 915v-450q0 -197 58.5 -275.5t197.5 -78.5t196.5 77.5t57.5 276.5v450h160v-534q0 -207 -106 -313.5t-312 -106.5q-204 0 -310 107t-106 313v534h164zM266 1059l197 348h196l197 -348h-123l-172 229l-174 -229h-121z" />
    <glyph glyph-name="udieresis" unicode="&#xfc;" horiz-adv-x="1120" 
d="M307 915v-450q0 -197 58.5 -275.5t197.5 -78.5t196.5 77.5t57.5 276.5v450h160v-534q0 -207 -106 -313.5t-312 -106.5q-204 0 -310 107t-106 313v534h164zM631 1223q0 45 33.5 78.5t78.5 33.5q46 0 79.5 -33t33.5 -79q0 -49 -32 -81t-81 -32q-48 0 -80 32t-32 81z
M266 1223q0 44 34.5 78t80.5 34t78 -33t32 -79q0 -50 -30.5 -81.5t-79.5 -31.5q-50 0 -82.5 32t-32.5 81z" />
    <glyph glyph-name="dagger" unicode="&#x2020;" horiz-adv-x="1075" 
d="M455 -446v1206h-365v143h365v561h166v-561h364v-143h-364v-1206h-166z" />
    <glyph glyph-name="degree" unicode="&#xb0;" horiz-adv-x="674" 
d="M539 1171q0 84 -58.5 142.5t-142.5 58.5t-143.5 -58.5t-59.5 -142.5t59.5 -143t143.5 -59t142.5 59t58.5 143zM338 1454q117 0 200 -83t83 -200q0 -116 -83.5 -199t-201.5 -83t-199.5 82t-81.5 200q0 119 82.5 201t200.5 82z" />
    <glyph glyph-name="cent" unicode="&#xa2;" horiz-adv-x="1208" 
d="M606 1075q-119 -12 -197.5 -104.5t-78.5 -220.5q0 -141 74 -231.5t202 -106.5v663zM967 995q-61 39 -129.5 60t-151.5 26v-671q98 11 167 34.5t116 61.5l-2 -172q-60 -35 -128.5 -52.5t-152.5 -19.5v-203h-80v207q-198 11 -322 141.5t-124 327.5q0 199 120 330t326 156
v161h80v-157q67 0 136.5 -15t144.5 -45v-170z" />
    <glyph glyph-name="sterling" unicode="&#xa3;" horiz-adv-x="1208" 
d="M86 49q55 88 117 134t133 53q23 43 34 89.5t11 96.5q0 40 -12.5 82.5t-36.5 85.5h-236v117h180q-50 122 -68 189.5t-18 125.5q0 202 131.5 329.5t344.5 127.5q200 0 315.5 -114t132.5 -329l-166 -38q-9 165 -84.5 253t-208.5 88q-125 0 -205.5 -84t-80.5 -217
q0 -68 22.5 -150.5t67.5 -180.5h385v-117h-342q13 -31 19.5 -63.5t6.5 -67.5q0 -53 -24 -112t-68 -111h8q88 0 214.5 -55.5t175.5 -55.5q51 0 94 30t84 95l133 -88q-56 -102 -132 -151.5t-177 -49.5q-39 0 -80.5 9t-83.5 26q-18 7 -53 22q-170 70 -234 70q-54 0 -97.5 -29.5
t-88.5 -97.5z" />
    <glyph glyph-name="section" unicode="&#xa7;" horiz-adv-x="1075" 
d="M539 285q104 0 178 72t74 173q0 102 -73.5 173t-178.5 71q-106 0 -179 -71t-73 -173t73.5 -173.5t178.5 -71.5zM154 -90h169q4 -105 56 -158t151 -53q100 0 153.5 47t53.5 133q0 73 -42.5 118.5t-196.5 104.5q-227 89 -307 178.5t-80 235.5q0 140 75.5 238.5t204.5 126.5
q-116 44 -171.5 116.5t-55.5 178.5q0 148 103 235.5t280 87.5q169 0 258.5 -85.5t89.5 -248.5v-20h-157q-4 104 -54 156.5t-147 52.5q-91 0 -142 -48t-51 -132q0 -49 19 -85t61 -65q32 -23 116.5 -54t116.5 -44q168 -72 241 -164.5t73 -231.5q0 -138 -70.5 -226.5
t-210.5 -127.5q104 -32 158.5 -109.5t54.5 -193.5q0 -152 -99.5 -239t-277.5 -87q-169 0 -270.5 93.5t-101.5 248.5v21z" />
    <glyph glyph-name="bullet" unicode="&#x2022;" horiz-adv-x="1208" 
d="M307 762q0 123 87 209t210 86q122 0 208.5 -86.5t86.5 -208.5t-87.5 -209.5t-209.5 -87.5q-123 0 -209 87t-86 210z" />
    <glyph glyph-name="paragraph" unicode="&#xb6;" 
d="M948 1401h-125v-1401h-94v1401h-182v-1401h-96v782q-173 8 -274 102.5t-101 245.5q0 157 107.5 253t285.5 96h479v-78z" />
    <glyph glyph-name="germandbls" unicode="&#xdf;" horiz-adv-x="1176" 
d="M170 0v791h-129v131h129v262q0 181 103.5 283t287.5 102q177 0 285 -104.5t108 -274.5q0 -124 -53.5 -203t-157.5 -108q161 -11 248.5 -123.5t87.5 -306.5q0 -218 -127 -350t-338 -132q-26 0 -58.5 5t-80.5 16v153q31 -14 64 -21t71 -7q142 0 218.5 87t76.5 249
q0 170 -87.5 258t-258.5 88q-16 0 -52 -4h-5v147q8 -1 17.5 -1.5t27.5 -0.5q119 0 181.5 59.5t62.5 173.5q0 120 -59 183t-171 63q-71 0 -124.5 -27.5t-82.5 -78.5q-15 -25 -21.5 -63.5t-6.5 -123.5v-92v-1030h-156z" />
    <glyph glyph-name="registered" unicode="&#xae;" horiz-adv-x="1706" 
d="M846 1065h-144v-291h148q123 0 175 33t52 108q0 79 -54.5 114.5t-176.5 35.5zM872 1157q178 0 264.5 -57t86.5 -174q0 -89 -53 -148.5t-144 -75.5l188 -385h-157l-176 365h-179v-365h-141v840h311zM1501 721q0 133 -48 251.5t-138 209.5q-94 93 -211.5 141.5t-251.5 48.5
q-132 0 -247 -47t-204 -137q-94 -95 -144 -214t-50 -249q0 -127 49 -244t141 -211q91 -92 208 -141t245 -49q131 0 249.5 48.5t213.5 141.5q91 90 139.5 206t48.5 245zM852 1460q150 0 284 -55.5t240 -161.5q102 -102 156.5 -235.5t54.5 -282.5q0 -151 -54.5 -283
t-158.5 -233q-109 -106 -243.5 -162.5t-278.5 -56.5q-145 0 -278.5 56t-239.5 163q-105 104 -160 237t-55 279q0 147 57 282t164 242q101 103 232 157t280 54z" />
    <glyph glyph-name="copyright" unicode="&#xa9;" horiz-adv-x="1706" 
d="M1065 911q-15 77 -70.5 120.5t-138.5 43.5q-117 0 -182.5 -92.5t-65.5 -259.5q0 -160 66.5 -252t181.5 -92q87 0 145.5 48.5t73.5 133.5h129q-11 -127 -109 -207t-245 -80q-176 0 -280.5 121t-104.5 326q0 208 107.5 332.5t287.5 124.5q137 0 230 -74.5t104 -192.5h-129z
M1501 725q0 130 -49 249t-139 210q-92 92 -210 140t-251 48q-132 0 -247.5 -47.5t-205.5 -138.5q-93 -95 -142.5 -214t-49.5 -247q0 -127 49 -244t141 -211q93 -92 209.5 -141t245.5 -49t248.5 50t214.5 142q91 90 138.5 205.5t47.5 247.5zM852 1460q151 0 285 -55t239 -160
q102 -102 156.5 -236t54.5 -284q0 -151 -54 -283t-157 -233q-109 -106 -244.5 -162.5t-279.5 -56.5q-146 0 -278 55.5t-238 161.5q-106 105 -161.5 238.5t-55.5 279.5q0 145 56.5 279.5t162.5 242.5q102 104 234 158.5t280 54.5z" />
    <glyph glyph-name="trademark" unicode="&#x2122;" horiz-adv-x="1706" 
d="M948 1456l160 -405l149 405h132v-534h-82v458l-172 -458h-54l-180 458v-458h-82v534h129zM694 1456v-67h-172v-467h-94v467h-174v67h440z" />
    <glyph glyph-name="acute" unicode="&#xb4;" 
d="M369 1059l204 348h201l-285 -348h-120z" />
    <glyph glyph-name="dieresis" unicode="&#xa8;" 
d="M582 1223q0 45 33.5 78.5t78.5 33.5q46 0 79.5 -33t33.5 -79q0 -49 -32 -81t-81 -32q-48 0 -80 32t-32 81zM217 1223q0 44 34.5 78t80.5 34t78 -33t32 -79q0 -50 -30.5 -81.5t-79.5 -31.5q-50 0 -82.5 32t-32.5 81z" />
    <glyph glyph-name="notequal" unicode="&#x2260;" horiz-adv-x="1706" 
d="M1298 1110l-196 -250h350v-115h-424l-211 -270h635v-115h-709l-251 -319l-89 70l197 249h-346v115h420l211 270h-631v115h704l252 320z" />
    <glyph glyph-name="AE" unicode="&#xc6;" horiz-adv-x="1767" 
d="M-25 0l621 1464h768l27 -155h-646l183 -430h637l28 -156h-598l238 -561h612l29 -162h-758l-190 449h-572l-190 -449h-189zM406 598h466l-233 569z" />
    <glyph glyph-name="Oslash" unicode="&#xd8;" horiz-adv-x="1782" 
d="M1260 1210q-83 63 -176.5 95t-192.5 32q-121 0 -229.5 -45t-194.5 -131q-86 -85 -131 -195.5t-45 -234.5q0 -119 38.5 -221t110.5 -178zM524 252q79 -63 171 -94t196 -31q123 0 232 44.5t194 129.5q84 85 129 198t45 238q0 108 -36.5 205t-113.5 191zM242 -49l-80 82
l160 172q-103 101 -158 237t-55 289q0 156 58.5 295t170.5 248q111 109 253 167t300 58q135 0 257 -42t226 -124l160 170l80 -80l-154 -163q104 -101 158.5 -236.5t54.5 -292.5q0 -156 -58.5 -295t-170.5 -248q-112 -108 -254 -165.5t-299 -57.5q-128 0 -248.5 41
t-234.5 123z" />
    <glyph glyph-name="infinity" unicode="&#x221e;" horiz-adv-x="1706" 
d="M905 559q51 -95 119 -141.5t156 -46.5q102 0 168.5 71t66.5 181q0 108 -61 179.5t-152 71.5q-85 0 -153.5 -72.5t-143.5 -242.5zM803 666q-51 95 -119 142.5t-154 47.5q-105 0 -171 -71t-66 -183q0 -108 61 -179t152 -71q85 0 152 69t145 245zM840 727q67 138 146 204
t175 66q134 0 226 -108.5t92 -272.5q0 -171 -82 -277t-213 -106q-96 0 -169 60t-149 201q-71 -138 -148 -201.5t-173 -63.5q-134 0 -226 109t-92 272q0 172 82.5 277.5t214.5 105.5q97 0 172 -63t144 -203z" />
    <glyph glyph-name="plusminus" unicode="&#xb1;" horiz-adv-x="1706" 
d="M1452 158v-117h-1198v117h1198zM913 1180v-344h539v-117h-539v-344h-118v344h-541v117h541v344h118z" />
    <glyph glyph-name="lessequal" unicode="&#x2264;" horiz-adv-x="1706" 
d="M1444 150v-117h-1182v117h1182zM1444 1067l-977 -324l977 -323v-125l-1182 399v101l1182 397v-125z" />
    <glyph glyph-name="greaterequal" unicode="&#x2265;" horiz-adv-x="1706" 
d="M1444 150v-117h-1182v117h1182zM1444 795v-101l-1182 -399v125l979 323l-979 324v125z" />
    <glyph glyph-name="yen" unicode="&#xa5;" horiz-adv-x="1208" 
d="M518 0v629h-498v121h443l-88 141h-355v123h277l-272 436h188l393 -649l393 649h185l-275 -436h279v-123h-354l-91 -141h445v-121h-498v-629h-172z" />
    <glyph glyph-name="mu" unicode="&#xb5;" horiz-adv-x="1128" 
d="M362 1069l-126 -595q-8 -33 -11.5 -67t-3.5 -71q0 -109 57 -168t160 -59q125 0 208 101t128 308l121 551h156l-162 -754q-12 -52 -17.5 -84t-5.5 -51q0 -32 18.5 -48.5t53.5 -16.5q9 0 17.5 0.5t17.5 1.5l-27 -125q-21 -5 -44 -7.5t-48 -2.5q-70 0 -104.5 35t-40.5 112
q-41 -70 -117 -108.5t-172 -38.5q-87 0 -152.5 34t-109.5 103l-113 -545h-156l316 1495h157z" />
    <glyph glyph-name="partialdiff" unicode="&#x2202;" horiz-adv-x="1044" 
d="M754 604q13 81 19.5 161.5t6.5 158.5q0 140 -39.5 216.5t-111.5 76.5q-53 0 -117 -63.5t-109 -63.5q-29 0 -51 21.5t-22 51.5q0 59 68 105.5t163 46.5q171 0 273 -152.5t102 -412.5q0 -335 -139 -555t-344 -220q-147 0 -241.5 106.5t-94.5 272.5q0 189 108.5 316
t266.5 127q99 0 162.5 -47t99.5 -146zM709 483q0 117 -45 180.5t-127 63.5q-113 0 -184.5 -127.5t-71.5 -333.5q0 -117 44 -178t128 -61q111 0 183.5 128t72.5 328z" />
    <glyph glyph-name="summation" unicode="&#x2211;" horiz-adv-x="1346" 
d="M51 1473h1239v-166h-989l690 -744l-719 -792h1035v-164h-1289v139l738 813l-705 758v156z" />
    <glyph glyph-name="product" unicode="&#x220f;" horiz-adv-x="1528" 
d="M160 1473h1208v-1866h-201v1693h-809v-1693h-198v1866z" />
    <glyph glyph-name="pi" unicode="&#x3c0;" horiz-adv-x="1186" 
d="M1139 930h-185l-110 -516q-14 -66 -21.5 -114.5t-7.5 -74.5q0 -57 24 -81.5t81 -24.5q21 0 46 2.5t52 7.5l-29 -129l-5 -1q-64 -15 -99 -15q-110 0 -168 51.5t-58 150.5q0 48 11.5 121t44.5 230l84 393h-348l-197 -930h-158l197 930h-39q-55 0 -84.5 -31t-40.5 -100h-145
q26 153 94 211.5t223 58.5h866z" />
    <glyph glyph-name="integral" unicode="&#x222b;" horiz-adv-x="1020" 
d="M301 -268q103 0 116 664q3 141 5 216q12 503 102 719.5t281 216.5q76 0 122 -39t46 -104q0 -48 -31 -77.5t-82 -29.5q-53 0 -85 35t-32 92q0 8 -6 15.5t-14 7.5q-105 0 -119 -634q-3 -157 -6 -245q-10 -308 -31.5 -461t-62.5 -247q-49 -114 -123 -173t-168 -59
q-73 0 -119.5 38t-46.5 97q0 53 31.5 84t83.5 31q47 0 79.5 -29t32.5 -67q0 -24 7.5 -37.5t19.5 -13.5z" />
    <glyph glyph-name="ordfeminine" unicode="&#xaa;" horiz-adv-x="874" 
d="M109 668h608v-119h-608v119zM637 1378v97h131v-656h-131v92q-45 -57 -106.5 -86.5t-135.5 -29.5q-152 0 -245 96t-93 254q0 161 91.5 257.5t242.5 96.5q79 0 141.5 -30.5t104.5 -90.5zM416 1380q-103 0 -159 -61t-56 -172q0 -110 58.5 -172t162.5 -62q101 0 158 60
t57 168q0 106 -62.5 172.5t-158.5 66.5z" />
    <glyph glyph-name="ordmasculine" unicode="&#xba;" horiz-adv-x="874" 
d="M111 666h653v-119h-653v119zM436 1378q-99 0 -168 -68t-69 -165t69 -165.5t168 -68.5q100 0 170 68.5t70 165.5q0 98 -69.5 165.5t-170.5 67.5zM436 1497q161 0 272 -102.5t111 -249.5q0 -146 -111.5 -249t-271.5 -103q-159 0 -270 103.5t-111 248.5q0 146 111 249
t270 103z" />
    <glyph glyph-name="Omega" unicode="&#x3a9;" horiz-adv-x="1573" 
d="M1473 156v-156h-590v150q193 111 296 279t103 374q0 251 -137 405t-359 154q-221 0 -359 -155t-138 -404q0 -205 103 -373.5t298 -279.5v-150h-590v156h332q-164 133 -242.5 285t-78.5 335q0 329 188.5 533t486.5 204q299 0 487.5 -202.5t188.5 -530.5
q0 -186 -78.5 -338.5t-242.5 -285.5h332z" />
    <glyph glyph-name="ae" unicode="&#xe6;" horiz-adv-x="1663" 
d="M213 281q0 -90 60 -137.5t173 -47.5q117 0 185.5 51.5t68.5 139.5q0 91 -63.5 140.5t-179.5 49.5q-119 0 -181.5 -50t-62.5 -146zM766 164q-47 -98 -140 -149.5t-223 -51.5q-159 0 -254.5 89t-95.5 237q0 149 97.5 235t265.5 86q79 0 148 -22.5t126 -66.5q1 7 1.5 17.5
t0.5 28.5q0 123 -73.5 187.5t-215.5 64.5q-62 0 -129.5 -19t-140.5 -57v146q80 29 158 44t153 15q134 0 224.5 -53.5t115.5 -146.5q46 99 136.5 150.5t218.5 51.5q206 0 325 -129t119 -354v-33h-731q3 -151 90.5 -246.5t220.5 -95.5q95 0 169.5 50.5t125.5 148.5l119 -80
q-69 -124 -175.5 -187t-248.5 -63q-132 0 -231 52t-156 151zM852 561h559q-8 121 -80.5 186.5t-197.5 65.5q-112 0 -192 -71.5t-89 -180.5z" />
    <glyph glyph-name="oslash" unicode="&#xf8;" horiz-adv-x="1165" 
d="M76 33l117 114q-54 63 -80.5 136t-26.5 157q0 221 140.5 363.5t357.5 142.5q86 0 162.5 -26t142.5 -78l119 116l73 -73l-116 -117q58 -58 87 -134.5t29 -170.5q0 -213 -144.5 -357.5t-356.5 -144.5q-94 0 -175 29t-141 84l-121 -121zM852 657l-475 -473q35 -38 87 -58
t118 -20q141 0 238.5 103t97.5 254q0 54 -16.5 102t-49.5 92zM307 262l473 469q-35 34 -86.5 52t-111.5 18q-141 0 -235.5 -100t-94.5 -252q0 -52 14 -99t41 -88z" />
    <glyph glyph-name="questiondown" unicode="&#xbf;" horiz-adv-x="1067" 
d="M676 1378q0 -49 -35 -83.5t-84 -34.5t-84 34.5t-35 83.5q0 50 34.5 84.5t84.5 34.5t84.5 -34.5t34.5 -84.5zM387 793h-156v30q0 153 81 236.5t229 83.5q138 0 216.5 -77.5t78.5 -213.5q0 -91 -51 -164t-195 -174l-42 -28q-190 -129 -190 -224q0 -69 48 -110t129 -41
q89 0 137.5 55t48.5 158h162v-27q0 -152 -96 -244t-252 -92q-164 0 -257.5 86t-93.5 236q0 90 54.5 163t210.5 177q15 10 44 29q179 115 179 218q0 55 -38.5 91t-96.5 36q-75 0 -112.5 -49t-37.5 -147v-8z" />
    <glyph glyph-name="exclamdown" unicode="&#xa1;" horiz-adv-x="653" 
d="M209 1380q0 50 34 83.5t85 33.5q50 0 84 -33.5t34 -83.5q0 -49 -34.5 -83.5t-83.5 -34.5t-84 34.5t-35 83.5zM248 1128h160v-1167h-160v1167z" />
    <glyph glyph-name="logicalnot" unicode="&#xac;" horiz-adv-x="1706" 
d="M1452 858v-502h-115v385h-1083v117h1198z" />
    <glyph glyph-name="radical" unicode="&#x221a;" horiz-adv-x="1288" 
d="M1288 1647v-82h-119l-594 -1606h-53l-323 893l-119 -43l-23 68l262 92l265 -729l522 1407h182z" />
    <glyph glyph-name="florin" unicode="&#x192;" horiz-adv-x="1208" 
d="M678 805l-92 -780q-33 -283 -100 -379.5t-207 -96.5q-25 0 -53.5 4t-57.5 11l33 137q21 -5 36 -7.5t27 -2.5q114 0 151 321l1 6l90 787h-162l14 133h160l21 164q24 201 89.5 289t190.5 88q39 0 78.5 -8.5t77.5 -24.5l-17 -141q-40 16 -66 23t-44 7q-62 0 -93 -54
t-46 -200l-17 -143h193l-15 -133h-192z" />
    <glyph glyph-name="approxequal" unicode="&#x2248;" horiz-adv-x="1706" 
d="M1530 453q-107 -75 -202 -110.5t-187 -35.5q-98 0 -288 69.5t-290 69.5q-82 0 -169.5 -35.5t-215.5 -123.5v131q106 73 202 109t185 36q111 0 301.5 -68.5t276.5 -68.5q85 0 173.5 35.5t213.5 122.5v-131zM1530 803q-104 -73 -200 -108.5t-187 -35.5q-100 0 -290 69
t-290 69q-83 0 -171.5 -36t-213.5 -122v131q106 73 202 109t185 36q111 0 300.5 -68.5t277.5 -68.5q87 0 175 35t212 121v-131z" />
    <glyph glyph-name="Delta" unicode="&#x2206;" horiz-adv-x="1356" 
d="M1122 158l-444 1138l-445 -1138h889zM780 1473l586 -1473h-1374l586 1473h202z" />
    <glyph glyph-name="guillemotleft" unicode="&#xab;" horiz-adv-x="852" 
d="M684 49l-254 404l244 407l106 -67l-207 -340l209 -332zM319 49l-251 404l243 407l105 -67l-205 -340l207 -332z" />
    <glyph glyph-name="guillemotright" unicode="&#xbb;" horiz-adv-x="852" 
d="M166 49l-98 72l206 332l-204 340l104 67l244 -407zM530 49l-100 72l209 332l-207 340l107 67l243 -407z" />
    <glyph glyph-name="ellipsis" unicode="&#x2026;" horiz-adv-x="2048" 
d="M221 98q0 49 35 84t84 35q50 0 85.5 -34.5t35.5 -84.5q0 -49 -35 -82.5t-86 -33.5q-50 0 -84.5 33.5t-34.5 82.5zM903 98q0 49 35 84t84 35q50 0 85.5 -34.5t35.5 -84.5q0 -49 -35 -82.5t-86 -33.5q-50 0 -84.5 33.5t-34.5 82.5zM1587 98q0 49 35 84t84 35
q50 0 85.5 -34.5t35.5 -84.5q0 -49 -35 -82.5t-86 -33.5q-50 0 -84.5 33.5t-34.5 82.5z" />
    <glyph glyph-name="nonbreakingspace" unicode="&#xa0;" horiz-adv-x="1208" 
 />
    <glyph glyph-name="Agrave" unicode="&#xc0;" horiz-adv-x="1280" 
d="M639 1137l-233 -539h466zM639 1522l666 -1522h-189l-190 449h-572l-190 -449h-189zM784 1610h-120l-285 348h201z" />
    <glyph glyph-name="Atilde" unicode="&#xc3;" horiz-adv-x="1280" 
d="M639 1137l-233 -539h466zM639 1522l666 -1522h-189l-190 449h-572l-190 -449h-189zM934 1888q-20 -102 -70.5 -155.5t-126.5 -53.5q-13 0 -30 3t-36 8l-96 26q-13 4 -25.5 6.5t-23.5 2.5q-31 0 -53.5 -17.5t-36.5 -50.5h-88q18 99 68 152t125 53q17 0 32 -2t27 -6l98 -29
q23 -6 34 -8t20 -2q33 0 56.5 18t37.5 55h88z" />
    <glyph glyph-name="Otilde" unicode="&#xd5;" horiz-adv-x="1782" 
d="M891 125q120 0 228.5 45.5t195.5 132.5q86 86 131 195t45 231q0 123 -45.5 234t-130.5 196q-86 86 -194.5 131t-229.5 45q-122 0 -231 -45t-193 -131q-86 -87 -131 -197t-45 -233q0 -122 44.5 -230t131.5 -196q88 -88 195.5 -133t228.5 -45zM1673 729q0 -157 -58 -296
t-169 -247t-255.5 -166.5t-299.5 -58.5t-298.5 58.5t-254.5 166.5q-112 109 -170.5 248t-58.5 295q0 157 58.5 296.5t170.5 248.5q110 107 254 165t299 58q156 0 300.5 -58t254.5 -165q111 -108 169 -247.5t58 -297.5zM1184 1888q-20 -102 -70.5 -155.5t-126.5 -53.5
q-13 0 -30 3t-36 8l-96 26q-13 4 -25.5 6.5t-23.5 2.5q-31 0 -53.5 -17.5t-36.5 -50.5h-88q18 99 68 152t125 53q17 0 32 -2t27 -6l98 -29q23 -6 34 -8t20 -2q33 0 56.5 18t37.5 55h88z" />
    <glyph glyph-name="OE" unicode="&#x152;" horiz-adv-x="2361" 
d="M293 733q0 -121 45.5 -230t132.5 -196q84 -84 191.5 -128t228.5 -44q122 0 230.5 45t193.5 129q85 86 129.5 194t44.5 230q0 119 -45.5 228t-130.5 194t-194 130.5t-228 45.5q-120 0 -229 -44.5t-193 -129.5q-87 -87 -131.5 -194.5t-44.5 -229.5zM2253 1464v-159h-598
v-420h598v-162h-598v-561h598v-162h-764v258q-115 -148 -258.5 -220.5t-323.5 -72.5q-114 0 -219 26.5t-188 76.5q-187 109 -289 283t-102 382q0 154 59 292.5t172 250.5q113 109 258 166t311 57q179 0 321.5 -71.5t258.5 -219.5v256h764z" />
    <glyph glyph-name="oe" unicode="&#x153;" horiz-adv-x="1878" 
d="M1632 561q-7 121 -80 186.5t-198 65.5q-114 0 -189.5 -68.5t-87.5 -183.5h555zM985 164q-53 -92 -162.5 -147.5t-238.5 -55.5q-66 0 -129.5 17t-120.5 51q-119 70 -183.5 181t-64.5 245q0 209 146 351t364 142q120 0 217.5 -50.5t171.5 -149.5q56 97 152.5 149.5
t220.5 52.5q204 0 323 -130t119 -355v-31h-723v-14q0 -147 84.5 -237.5t218.5 -90.5q92 0 165 49.5t130 149.5l121 -80q-69 -124 -175.5 -187t-248.5 -63q-131 0 -231 52.5t-156 150.5zM252 455q0 -145 97 -245.5t235 -100.5q137 0 233 100.5t96 245.5t-96 245.5t-233 100.5
q-139 0 -235.5 -100.5t-96.5 -245.5z" />
    <glyph glyph-name="endash" unicode="&#x2013;" 
d="M0 514h1024v-117h-1024v117z" />
    <glyph glyph-name="emdash" unicode="&#x2014;" horiz-adv-x="2048" 
d="M0 397v117h2048v-117h-2048z" />
    <glyph glyph-name="quotedblleft" unicode="&#x201c;" horiz-adv-x="891" 
d="M807 1452l-191 -545l-170 62l246 528zM444 1452l-190 -545l-170 62l248 528z" />
    <glyph glyph-name="quotedblright" unicode="&#x201d;" horiz-adv-x="891" 
d="M444 954l189 543l172 -59l-248 -531zM86 954l190 543l170 -59l-245 -531z" />
    <glyph glyph-name="quoteleft" unicode="&#x2018;" horiz-adv-x="604" 
d="M481 1452l-188 -545l-172 62l248 528z" />
    <glyph glyph-name="quoteright" unicode="&#x2019;" horiz-adv-x="604" 
d="M121 954l190 543l170 -59l-245 -531z" />
    <glyph glyph-name="divide" unicode="&#xf7;" horiz-adv-x="1706" 
d="M854 365q47 0 81 -34t34 -81t-33.5 -81t-81.5 -34t-81.5 33.5t-33.5 81.5t34 81.5t81 33.5zM1452 670v-117h-1198v117h1198zM854 1085q48 0 81.5 -33.5t33.5 -80.5q0 -48 -33.5 -81.5t-81.5 -33.5q-49 0 -82 33.5t-33 81.5q0 47 34 80.5t81 33.5z" />
    <glyph glyph-name="lozenge" unicode="&#x25ca;" horiz-adv-x="1012" 
d="M506 1409l-385 -817l385 -825l385 825zM506 1653l500 -1061l-500 -1069l-500 1069z" />
    <glyph glyph-name="ydieresis" unicode="&#xff;" horiz-adv-x="901" 
d="M123 -446l248 536l-359 825h181l266 -657l282 657h172l-614 -1361h-176zM521 1223q0 45 33.5 78.5t78.5 33.5q46 0 79.5 -33t33.5 -79q0 -49 -32 -81t-81 -32q-48 0 -80 32t-32 81zM156 1223q0 44 34.5 78t80.5 34t78 -33t32 -79q0 -50 -30.5 -81.5t-79.5 -31.5
q-50 0 -82.5 32t-32.5 81z" />
    <glyph glyph-name="Ydieresis" unicode="&#x178;" horiz-adv-x="1171" 
d="M498 0v670l-496 794h201l383 -635l381 635h200l-495 -794v-670h-174zM656 1774q0 45 33.5 78.5t78.5 33.5q46 0 79.5 -33t33.5 -79q0 -49 -32 -81t-81 -32q-48 0 -80 32t-32 81zM291 1774q0 44 34.5 78t80.5 34t78 -33t32 -79q0 -50 -30.5 -81.5t-79.5 -31.5
q-50 0 -82.5 32t-32.5 81z" />
    <glyph glyph-name="fraction" unicode="&#x2215;" horiz-adv-x="342" 
d="M-342 -39l899 1518h125l-899 -1518h-125z" />
    <glyph glyph-name="currency" unicode="&#xa4;" horiz-adv-x="1208" 
d="M1133 283l-7 -193q-85 -64 -177 -96.5t-189 -32.5q-229 0 -390 159t-200 427h-166l23 102h133q-1 5 -1 13q-3 43 -3 59q0 14 1.5 35.5t3.5 48.5h-157l23 106h147q44 260 206.5 414t389.5 154q102 0 188.5 -35t167.5 -109v-190q-79 90 -164.5 135t-177.5 45
q-162 0 -277.5 -111.5t-148.5 -302.5h619l-33 -106h-602q-1 -15 -2 -38q-2 -36 -2 -46q0 -27 0.5 -42.5t1.5 -28.5l557 -1l-33 -102h-510q28 -195 143.5 -313.5t272.5 -118.5q96 0 183.5 40.5t179.5 127.5z" />
    <glyph glyph-name="guilsinglleft" unicode="&#x2039;" horiz-adv-x="485" 
d="M319 49l-251 404l243 407l105 -67l-205 -340l207 -332z" />
    <glyph glyph-name="guilsinglright" unicode="&#x203a;" horiz-adv-x="485" 
d="M166 49l-98 72l206 332l-204 340l104 67l244 -407z" />
    <glyph glyph-name="fi" unicode="&#xf001;" horiz-adv-x="1075" 
d="M713 1356q0 47 33.5 80.5t80.5 33.5q48 0 81.5 -34t33.5 -82q0 -47 -33.5 -80t-81.5 -33t-81 33t-33 82zM750 0v915h155v-915h-155zM201 0v786h-176v129h176v265q0 228 57.5 308.5t206.5 80.5q37 0 70.5 -5t64.5 -16v-162q-30 17 -60.5 25t-62.5 8q-69 0 -95 -44
t-26 -216v-244h244v-129h-240v-786h-159z" />
    <glyph glyph-name="fi" unicode="&#xfb01;" horiz-adv-x="1075" 
d="M713 1356q0 47 33.5 80.5t80.5 33.5q48 0 81.5 -34t33.5 -82q0 -47 -33.5 -80t-81.5 -33t-81 33t-33 82zM750 0v915h155v-915h-155zM201 0v786h-176v129h176v265q0 228 57.5 308.5t206.5 80.5q37 0 70.5 -5t64.5 -16v-162q-30 17 -60.5 25t-62.5 8q-69 0 -95 -44
t-26 -216v-244h244v-129h-240v-786h-159z" />
    <glyph glyph-name="fl" unicode="&#xf002;" horiz-adv-x="1075" 
d="M750 1550h157v-1550h-157v1550zM201 0v786h-176v129h176v265q0 228 57.5 308.5t206.5 80.5q37 0 70.5 -5t64.5 -16v-162q-30 17 -60.5 25t-62.5 8q-69 0 -95 -44t-26 -216v-244h244v-129h-240v-786h-159z" />
    <glyph glyph-name="fl" unicode="&#xfb02;" horiz-adv-x="1075" 
d="M750 1550h157v-1550h-157v1550zM201 0v786h-176v129h176v265q0 228 57.5 308.5t206.5 80.5q37 0 70.5 -5t64.5 -16v-162q-30 17 -60.5 25t-62.5 8q-69 0 -95 -44t-26 -216v-244h244v-129h-240v-786h-159z" />
    <glyph glyph-name="daggerdbl" unicode="&#x2021;" horiz-adv-x="1075" 
d="M453 -446v503h-363v150h363v684h-363v149h363v424h170v-424h362v-149h-362v-684h362v-150h-362v-503h-170z" />
    <glyph glyph-name="periodcentered" unicode="&#xb7;" horiz-adv-x="604" 
d="M182 721q0 49 35 84t84 35q50 0 85.5 -35t35.5 -84q0 -50 -35.5 -84.5t-85.5 -34.5t-84.5 34.5t-34.5 84.5z" />
    <glyph glyph-name="quotesinglbase" unicode="&#x201a;" horiz-adv-x="604" 
d="M121 -291l190 545l170 -59l-245 -531z" />
    <glyph glyph-name="quotedblbase" unicode="&#x201e;" horiz-adv-x="891" 
d="M444 -291l189 545l172 -59l-248 -531zM86 -291l190 545l170 -59l-245 -531z" />
    <glyph glyph-name="perthousand" unicode="&#x2030;" horiz-adv-x="2224" 
d="M1874 63q73 0 113.5 72t40.5 205q0 137 -39 206.5t-115 69.5q-73 0 -112.5 -71.5t-39.5 -204.5q0 -134 39.5 -205.5t112.5 -71.5zM2175 340q0 -179 -79.5 -279t-221.5 -100q-141 0 -220 99.5t-79 279.5q0 179 79 279t220 100q142 0 221.5 -100t79.5 -279zM1466 340
q0 -180 -78.5 -279.5t-220.5 -99.5q-141 0 -221 100t-80 279t80 279t221 100q142 0 220.5 -100t78.5 -279zM1167 63q74 0 114 72t40 205q0 137 -39 206.5t-115 69.5q-73 0 -113 -71.5t-40 -204.5t40 -205t113 -72zM358 823q74 0 114 72t40 205q0 137 -39 207.5t-115 70.5
q-73 0 -113 -72.5t-40 -205.5t40 -205t113 -72zM659 1100q0 -179 -79 -278t-222 -99q-142 0 -221.5 99t-79.5 278t80 279t221 100q142 0 221.5 -100t79.5 -279zM272 -39l842 1518h123l-840 -1518h-125z" />
    <glyph glyph-name="Acircumflex" unicode="&#xc2;" horiz-adv-x="1280" 
d="M639 1137l-233 -539h466zM639 1522l666 -1522h-189l-190 449h-572l-190 -449h-189zM346 1610l197 348h196l197 -348h-123l-172 229l-174 -229h-121z" />
    <glyph glyph-name="Ecircumflex" unicode="&#xca;" horiz-adv-x="1067" 
d="M176 0v1464h772v-159h-598v-420h598v-162h-598v-561h598v-162h-772zM272 1610l197 348h196l197 -348h-123l-172 229l-174 -229h-121z" />
    <glyph glyph-name="Aacute" unicode="&#xc1;" horiz-adv-x="1280" 
d="M639 1137l-233 -539h466zM639 1522l666 -1522h-189l-190 449h-572l-190 -449h-189zM498 1610l204 348h201l-285 -348h-120z" />
    <glyph glyph-name="Edieresis" unicode="&#xcb;" horiz-adv-x="1067" 
d="M176 0v1464h772v-159h-598v-420h598v-162h-598v-561h598v-162h-772zM637 1774q0 45 33.5 78.5t78.5 33.5q46 0 79.5 -33t33.5 -79q0 -49 -32 -81t-81 -32q-48 0 -80 32t-32 81zM272 1774q0 44 34.5 78t80.5 34t78 -33t32 -79q0 -50 -30.5 -81.5t-79.5 -31.5
q-50 0 -82.5 32t-32.5 81z" />
    <glyph glyph-name="Egrave" unicode="&#xc8;" horiz-adv-x="1067" 
d="M176 0v1464h772v-159h-598v-420h598v-162h-598v-561h598v-162h-772zM710 1610h-120l-285 348h201z" />
    <glyph glyph-name="Iacute" unicode="&#xcd;" horiz-adv-x="530" 
d="M178 0v1464h174v-1464h-174zM123 1610l204 348h201l-285 -348h-120z" />
    <glyph glyph-name="Icircumflex" unicode="&#xce;" horiz-adv-x="530" 
d="M178 0v1464h174v-1464h-174zM-29 1610l197 348h196l197 -348h-123l-172 229l-174 -229h-121z" />
    <glyph glyph-name="Idieresis" unicode="&#xcf;" horiz-adv-x="530" 
d="M178 0v1464h174v-1464h-174zM336 1774q0 45 33.5 78.5t78.5 33.5q46 0 79.5 -33t33.5 -79q0 -49 -32 -81t-81 -32q-48 0 -80 32t-32 81zM-29 1774q0 44 34.5 78t80.5 34t78 -33t32 -79q0 -50 -30.5 -81.5t-79.5 -31.5q-50 0 -82.5 32t-32.5 81z" />
    <glyph glyph-name="Igrave" unicode="&#xcc;" horiz-adv-x="530" 
d="M178 0v1464h174v-1464h-174zM409 1610h-120l-285 348h201z" />
    <glyph glyph-name="Oacute" unicode="&#xd3;" horiz-adv-x="1782" 
d="M891 125q120 0 228.5 45.5t195.5 132.5q86 86 131 195t45 231q0 123 -45.5 234t-130.5 196q-86 86 -194.5 131t-229.5 45q-122 0 -231 -45t-193 -131q-86 -87 -131 -197t-45 -233q0 -122 44.5 -230t131.5 -196q88 -88 195.5 -133t228.5 -45zM1673 729q0 -157 -58 -296
t-169 -247t-255.5 -166.5t-299.5 -58.5t-298.5 58.5t-254.5 166.5q-112 109 -170.5 248t-58.5 295q0 157 58.5 296.5t170.5 248.5q110 107 254 165t299 58q156 0 300.5 -58t254.5 -165q111 -108 169 -247.5t58 -297.5zM748 1610l204 348h201l-285 -348h-120z" />
    <glyph glyph-name="Ocircumflex" unicode="&#xd4;" horiz-adv-x="1782" 
d="M891 125q120 0 228.5 45.5t195.5 132.5q86 86 131 195t45 231q0 123 -45.5 234t-130.5 196q-86 86 -194.5 131t-229.5 45q-122 0 -231 -45t-193 -131q-86 -87 -131 -197t-45 -233q0 -122 44.5 -230t131.5 -196q88 -88 195.5 -133t228.5 -45zM1673 729q0 -157 -58 -296
t-169 -247t-255.5 -166.5t-299.5 -58.5t-298.5 58.5t-254.5 166.5q-112 109 -170.5 248t-58.5 295q0 157 58.5 296.5t170.5 248.5q110 107 254 165t299 58q156 0 300.5 -58t254.5 -165q111 -108 169 -247.5t58 -297.5zM596 1610l197 348h196l197 -348h-123l-172 229
l-174 -229h-121z" />
    <glyph glyph-name="apple" unicode="&#xf000;" horiz-adv-x="1618" 
d="M836 1216q-1 6 -1.5 14t-0.5 23q0 124 95 229.5t236 131.5q1 -10 1.5 -23t0.5 -39q0 -131 -103.5 -234.5t-203.5 -103.5h-8q-3 0 -7.5 1t-8.5 1zM1505 403q-114 -247 -205 -342.5t-204 -95.5q-50 0 -131.5 33t-122.5 33q-45 0 -131 -33t-127 -33q-64 0 -128.5 44
t-129.5 132q-102 140 -157.5 295.5t-55.5 300.5q0 219 125 356.5t323 137.5q68 0 155 -34t124 -34q34 0 121.5 35t152.5 35q110 0 198 -40t161 -124q-102 -65 -151.5 -145.5t-49.5 -182.5q0 -113 60 -200t173 -138z" />
    <glyph glyph-name="Ograve" unicode="&#xd2;" horiz-adv-x="1782" 
d="M891 125q120 0 228.5 45.5t195.5 132.5q86 86 131 195t45 231q0 123 -45.5 234t-130.5 196q-86 86 -194.5 131t-229.5 45q-122 0 -231 -45t-193 -131q-86 -87 -131 -197t-45 -233q0 -122 44.5 -230t131.5 -196q88 -88 195.5 -133t228.5 -45zM1673 729q0 -157 -58 -296
t-169 -247t-255.5 -166.5t-299.5 -58.5t-298.5 58.5t-254.5 166.5q-112 109 -170.5 248t-58.5 295q0 157 58.5 296.5t170.5 248.5q110 107 254 165t299 58q156 0 300.5 -58t254.5 -165q111 -108 169 -247.5t58 -297.5zM1034 1610h-120l-285 348h201z" />
    <glyph glyph-name="Uacute" unicode="&#xda;" horiz-adv-x="1475" 
d="M170 1464h176v-911q0 -222 94.5 -326t296.5 -104t296.5 104t94.5 326v911h177v-911q0 -297 -141.5 -444.5t-426.5 -147.5q-284 0 -425.5 147.5t-141.5 444.5v911zM594 1610l204 348h201l-285 -348h-120z" />
    <glyph glyph-name="Ucircumflex" unicode="&#xdb;" horiz-adv-x="1475" 
d="M170 1464h176v-911q0 -222 94.5 -326t296.5 -104t296.5 104t94.5 326v911h177v-911q0 -297 -141.5 -444.5t-426.5 -147.5q-284 0 -425.5 147.5t-141.5 444.5v911zM442 1610l197 348h196l197 -348h-123l-172 229l-174 -229h-121z" />
    <glyph glyph-name="Ugrave" unicode="&#xd9;" horiz-adv-x="1475" 
d="M170 1464h176v-911q0 -222 94.5 -326t296.5 -104t296.5 104t94.5 326v911h177v-911q0 -297 -141.5 -444.5t-426.5 -147.5q-284 0 -425.5 147.5t-141.5 444.5v911zM880 1610h-120l-285 348h201z" />
    <glyph glyph-name="dotlessi" unicode="&#x131;" horiz-adv-x="496" 
d="M168 0v915h158v-915h-158z" />
    <glyph glyph-name="circumflex" unicode="&#x2c6;" 
d="M217 1059l197 348h196l197 -348h-123l-172 229l-174 -229h-121z" />
    <glyph glyph-name="tilde" unicode="&#x2dc;" 
d="M805 1337q-20 -102 -70.5 -155.5t-126.5 -53.5q-13 0 -30 3t-36 8l-96 26q-13 4 -25.5 6.5t-23.5 2.5q-31 0 -53.5 -17.5t-36.5 -50.5h-88q18 99 68 152t125 53q17 0 32 -2t27 -6l98 -29q23 -6 34 -8t20 -2q33 0 56.5 18t37.5 55h88z" />
    <glyph glyph-name="macron" unicode="&#xaf;" 
d="M242 1153v139h540v-139h-540z" />
    <glyph glyph-name="breve" unicode="&#x2d8;" 
d="M221 1323h109q10 -64 53.5 -93.5t128.5 -29.5q86 0 129.5 29.5t53.5 93.5h108q-14 -133 -84 -194.5t-207 -61.5t-207 61.5t-84 194.5z" />
    <glyph glyph-name="dotaccent" unicode="&#x2d9;" 
d="M395 1223q0 48 35 83t82 35q48 0 83.5 -35.5t35.5 -82.5q0 -51 -34 -85t-85 -34q-50 0 -83.5 34t-33.5 85z" />
    <glyph glyph-name="ring" unicode="&#x2da;" 
d="M377 1292q0 -57 39 -96t96 -39q56 0 95.5 39.5t39.5 95.5t-40 95.5t-95 39.5q-57 0 -96 -39t-39 -96zM260 1292q0 107 73 180.5t179 73.5t180 -74t74 -180q0 -105 -74 -178.5t-180 -73.5t-179 73t-73 179z" />
    <glyph glyph-name="cedilla" unicode="&#xb8;" 
d="M256 -426v100q79 -18 143 -28.5t103 -10.5q60 0 90.5 20.5t30.5 61.5q0 44 -32.5 65t-101.5 21q-20 0 -31 -0.5t-22 -0.5v198h76v-102h29q109 0 166 -46t57 -135q0 -91 -64 -139.5t-186 -48.5q-50 0 -115.5 11.5t-142.5 33.5z" />
    <glyph glyph-name="hungarumlaut" unicode="&#x2dd;" 
d="M569 1059l166 348h176l-245 -348h-97zM311 1059l138 348h178l-219 -348h-97z" />
    <glyph glyph-name="ogonek" unicode="&#x2db;" 
d="M590 0q-71 -63 -104 -116.5t-33 -104.5q0 -43 21 -60.5t75 -17.5h84v-143h-86q-113 0 -169 42t-56 126q0 66 43.5 130.5t142.5 143.5h82z" />
    <glyph glyph-name="caron" unicode="&#x2c7;" 
d="M217 1407h121l174 -227l172 227h123l-197 -348h-196z" />
    <glyph glyph-name="Lslash" unicode="&#x141;" horiz-adv-x="944" 
d="M184 0v612l-170 -118l-88 120l258 181v669h176v-569l250 176l88 -123l-338 -237v-545h553v-166h-729z" />
    <glyph glyph-name="lslash" unicode="&#x142;" horiz-adv-x="524" 
d="M182 0v594l-135 -96l-72 104l207 148v800h160v-698l135 96l72 -104l-207 -148v-696h-160z" />
    <glyph glyph-name="Scaron" unicode="&#x160;" horiz-adv-x="1053" 
d="M709 813q143 -61 215.5 -162t72.5 -239q0 -202 -128.5 -325.5t-340.5 -123.5q-173 0 -290 88.5t-158 251.5l158 78q32 -133 105.5 -201.5t184.5 -68.5q131 0 212 75.5t81 196.5q0 98 -56.5 170.5t-170.5 122.5l-178 76q-146 61 -217.5 157t-71.5 230q0 156 116 258
t296 102q132 0 228.5 -56t150.5 -165l-144 -92q-49 85 -110 126.5t-138 41.5q-98 0 -160.5 -60t-62.5 -153q0 -78 48 -135t149 -101zM231 1958h121l174 -227l172 227h123l-197 -348h-196z" />
    <glyph glyph-name="scaron" unicode="&#x161;" horiz-adv-x="834" 
d="M63 154l134 90q38 -73 96 -109.5t137 -36.5q77 0 124.5 38t47.5 100q0 48 -32.5 80t-111.5 59l-26 9q-334 115 -334 288q0 122 90 199t234 77q119 0 204 -47.5t122 -134.5l-127 -78q-28 63 -82.5 97t-126.5 34q-69 0 -112.5 -38.5t-43.5 -98.5q0 -84 182 -141
q34 -11 54 -17q149 -48 207.5 -109.5t58.5 -162.5q0 -130 -92.5 -210.5t-241.5 -80.5q-128 0 -217.5 48t-143.5 145zM123 1407h121l174 -227l172 227h123l-197 -348h-196z" />
    <glyph glyph-name="Zcaron" unicode="&#x17d;" horiz-adv-x="1159" 
d="M-10 0l823 1305h-668v159h963l-815 -1298h782v-166h-1085zM285 1958h121l174 -227l172 227h123l-197 -348h-196z" />
    <glyph glyph-name="zcaron" unicode="&#x17e;" horiz-adv-x="883" 
d="M31 0l524 778h-492v137h768l-524 -778h520v-137h-796zM147 1407h121l174 -227l172 227h123l-197 -348h-196z" />
    <glyph glyph-name="brokenbar" unicode="&#xa6;" 
d="M575 408v-758h-126v758h126zM575 1432v-758h-126v758h126z" />
    <glyph glyph-name="Eth" unicode="&#xd0;" horiz-adv-x="1493" 
d="M184 0v741h-184v152h184v571h281q312 0 439.5 -31.5t223.5 -105.5q127 -97 192.5 -249t65.5 -347t-65.5 -345.5t-192.5 -248.5q-95 -74 -218 -105.5t-382 -31.5h-63h-281zM360 164h113q270 0 374 23.5t173 80.5q89 74 135.5 192.5t46.5 272.5q0 155 -45.5 271.5
t-136.5 191.5q-69 58 -175.5 82.5t-371.5 24.5h-113v-410h398v-152h-398v-577z" />
    <glyph glyph-name="eth" unicode="&#xf0;" horiz-adv-x="1165" 
d="M252 426q0 -131 96.5 -223t235.5 -92q137 0 233 92t96 223q0 132 -95.5 224.5t-233.5 92.5q-139 0 -235.5 -92.5t-96.5 -224.5zM909 737q-35 119 -111.5 233.5t-193.5 223.5l-328 -150l-57 105l279 129q-59 47 -118.5 87t-119.5 73l78 110q83 -48 158.5 -99t144.5 -108
l344 160l59 -104l-305 -144q174 -176 258 -358.5t84 -380.5q0 -256 -134 -404.5t-363 -148.5q-99 0 -190.5 35.5t-164.5 101.5q-69 65 -106 149.5t-37 176.5q0 93 37 177t106 149q72 66 159.5 101.5t176.5 35.5q102 0 187 -37t157 -113z" />
    <glyph glyph-name="Yacute" unicode="&#xdd;" horiz-adv-x="1171" 
d="M498 0v670l-496 794h201l383 -635l381 635h200l-495 -794v-670h-174zM443 1610l204 348h201l-285 -348h-120z" />
    <glyph glyph-name="yacute" unicode="&#xfd;" horiz-adv-x="901" 
d="M123 -446l248 536l-359 825h181l266 -657l282 657h172l-614 -1361h-176zM308 1059l204 348h201l-285 -348h-120z" />
    <glyph glyph-name="Thorn" unicode="&#xde;" 
d="M346 516h88q228 0 303.5 51.5t75.5 182.5q0 141 -80 198.5t-299 57.5h-88v-490zM346 356v-356h-170v1464h170v-299h115q178 0 255.5 -17t135.5 -58q70 -51 109.5 -138t39.5 -192q0 -106 -39.5 -193t-109.5 -137q-56 -40 -131.5 -57t-237.5 -17h-49h-88z" />
    <glyph glyph-name="thorn" unicode="&#xfe;" horiz-adv-x="1176" 
d="M311 467q0 -162 84 -257t226 -95q137 0 215.5 85t78.5 236q0 169 -78.5 265t-218.5 96t-223.5 -89.5t-83.5 -240.5zM315 166v-612h-155v1996h155v-807q39 97 125.5 151t202.5 54q198 0 318 -135t120 -358q0 -227 -117.5 -360.5t-314.5 -133.5q-113 0 -197 51.5
t-137 153.5z" />
    <glyph glyph-name="minus" unicode="&#x2212;" horiz-adv-x="1706" 
d="M1452 670v-119h-1198v119h1198z" />
    <glyph glyph-name="multiply" unicode="&#xd7;" horiz-adv-x="1706" 
d="M858 692l475 477l82 -82l-475 -477l475 -475l-82 -82l-475 475l-477 -475l-80 82l475 475l-475 477l80 82z" />
    <glyph glyph-name="onesuperior" unicode="&#xb9;" horiz-adv-x="799" 
d="M369 575v779h-197l64 92h245v-871h-112z" />
    <glyph glyph-name="twosuperior" unicode="&#xb2;" horiz-adv-x="797" 
d="M657 676v-101h-581l205 220q21 23 62 67q232 252 232 350q0 69 -53 111.5t-139 42.5q-91 0 -139.5 -46.5t-48.5 -133.5v-10h-109v24q0 125 79 193.5t222 68.5q142 0 221.5 -64.5t79.5 -178.5q0 -82 -54.5 -171.5t-191.5 -224.5l-149 -147h364z" />
    <glyph glyph-name="threesuperior" unicode="&#xb3;" horiz-adv-x="797" 
d="M74 799h119v-11q0 -68 48 -107.5t132 -39.5q94 0 146 44.5t52 125.5q0 85 -53.5 128.5t-157.5 43.5h-32v86q5 0 15 -1t15 -1q100 0 150.5 39.5t50.5 118.5q0 69 -46 109t-126 40q-83 0 -130.5 -38t-51.5 -107h-113q6 113 83.5 173t215.5 60q134 0 211.5 -62.5
t77.5 -170.5q0 -78 -45 -131.5t-127 -73.5q87 -12 135.5 -69.5t48.5 -147.5q0 -118 -86 -186t-237 -68q-135 0 -215 62.5t-80 166.5v17z" />
    <glyph glyph-name="onequarter" unicode="&#xbc;" horiz-adv-x="1866" 
d="M1565 0v176h-432l493 651h47v-571h109v-80h-109v-176h-108zM1565 256v360l-271 -360h271zM420 -39l899 1518h125l-899 -1518h-125zM352 633v727h-188l61 84h234v-811h-107z" />
    <glyph glyph-name="onehalf" unicode="&#xbd;" horiz-adv-x="1866" 
d="M1733 92v-92h-557l194 205q19 20 56 59q227 238 227 332q0 63 -51 103t-132 40q-87 0 -133.5 -43.5t-46.5 -126.5v-8h-104v21q0 116 76 180.5t213 64.5q134 0 210 -60t76 -167q0 -76 -51.5 -159t-181.5 -210l-146 -139h351zM420 -39l899 1518h125l-899 -1518h-125z
M352 633v727h-188l61 84h234v-811h-107z" />
    <glyph glyph-name="threequarters" unicode="&#xbe;" horiz-adv-x="1864" 
d="M1565 0v176h-432l493 651h47v-571h109v-80h-109v-176h-108zM1565 256v360l-271 -360h271zM420 -39l899 1518h125l-899 -1518h-125zM72 840h110v-9q0 -62 47 -99.5t125 -37.5q91 0 141 42t50 118q0 79 -51 119.5t-150 40.5q-13 0 -19.5 -0.5t-12.5 -1.5l-1 82q7 0 16.5 -1
t14.5 -1q95 0 144 37.5t49 109.5q0 64 -44.5 101.5t-119.5 37.5q-81 0 -126 -35.5t-49 -101.5h-108q6 107 79 163t206 56q128 0 202 -58t74 -159q0 -73 -43 -123.5t-121 -68.5q82 -11 129.5 -65t47.5 -136q0 -112 -83 -176t-229 -64q-126 0 -202 59t-76 156v15z" />
    <glyph glyph-name="franc" unicode="&#x20a3;" horiz-adv-x="1757" 
d="M176 0v1464h772v-159h-598v-420h598v-162h-598v-723h-174zM1200 0v915h139v-190q63 119 134 170t173 51q28 0 54 -4.5t52 -13.5l-52 -141q-27 9 -51 13.5t-46 4.5q-124 0 -186 -89.5t-62 -269.5v-446h-155z" />
    <glyph glyph-name="Gbreve" unicode="&#x11e;" horiz-adv-x="1667" 
d="M981 756h604v-49q0 -346 -196 -546t-535 -200q-103 0 -196.5 22t-172.5 64q-180 99 -278 273.5t-98 396.5q0 183 58.5 330.5t176.5 259.5q99 94 230 142t290 48q211 0 366 -76.5t257 -230.5l-146 -117q-79 133 -197 199.5t-274 66.5q-255 0 -414 -172t-159 -450
q0 -262 161.5 -430t411.5 -168q220 0 366.5 133.5t162.5 347.5h-418v156zM543 1874h109q10 -64 53.5 -93.5t128.5 -29.5q86 0 129.5 29.5t53.5 93.5h108q-14 -133 -84 -194.5t-207 -61.5t-207 61.5t-84 194.5z" />
    <glyph glyph-name="gbreve" unicode="&#x11f;" horiz-adv-x="1169" 
d="M860 455q0 154 -84 248t-221 94q-141 0 -220 -87t-79 -243q0 -166 79.5 -256t225.5 -90q140 0 219.5 88.5t79.5 245.5zM1012 915v-899q0 -149 -20 -212t-66 -113q-64 -69 -156.5 -103t-212.5 -34q-208 0 -324.5 95t-121.5 269h176v-12q0 -103 71 -159t201 -56
q94 0 160.5 30.5t101.5 90.5q21 34 30 79t9 129v72v82q-53 -98 -139 -150.5t-193 -52.5q-197 0 -317.5 134t-120.5 356q0 224 117 355.5t313 131.5q114 0 200 -51.5t136 -151.5v170h156zM295 1323h109q10 -64 53.5 -93.5t128.5 -29.5q86 0 129.5 29.5t53.5 93.5h108
q-14 -133 -84 -194.5t-207 -61.5t-207 61.5t-84 194.5z" />
    <glyph glyph-name="Idotaccent" unicode="&#x130;" horiz-adv-x="530" 
d="M178 0v1464h174v-1464h-174zM149 1774q0 48 35 83t82 35q48 0 83.5 -35.5t35.5 -82.5q0 -51 -34 -85t-85 -34q-50 0 -83.5 34t-33.5 85z" />
    <glyph glyph-name="Scedilla" unicode="&#x15e;" horiz-adv-x="1053" 
d="M709 813q143 -61 215.5 -162t72.5 -239q0 -202 -128.5 -325.5t-340.5 -123.5q-173 0 -290 88.5t-158 251.5l158 78q32 -133 105.5 -201.5t184.5 -68.5q131 0 212 75.5t81 196.5q0 98 -56.5 170.5t-170.5 122.5l-178 76q-146 61 -217.5 157t-71.5 230q0 156 116 258
t296 102q132 0 228.5 -56t150.5 -165l-144 -92q-49 85 -110 126.5t-138 41.5q-98 0 -160.5 -60t-62.5 -153q0 -78 48 -135t149 -101zM270 -426v100q79 -18 143 -28.5t103 -10.5q60 0 90.5 20.5t30.5 61.5q0 44 -32.5 65t-101.5 21q-20 0 -31 -0.5t-22 -0.5v198h76v-102h29
q109 0 166 -46t57 -135q0 -91 -64 -139.5t-186 -48.5q-50 0 -115.5 11.5t-142.5 33.5z" />
    <glyph glyph-name="scedilla" unicode="&#x15f;" horiz-adv-x="834" 
d="M63 154l134 90q38 -73 96 -109.5t137 -36.5q77 0 124.5 38t47.5 100q0 48 -32.5 80t-111.5 59l-26 9q-334 115 -334 288q0 122 90 199t234 77q119 0 204 -47.5t122 -134.5l-127 -78q-28 63 -82.5 97t-126.5 34q-69 0 -112.5 -38.5t-43.5 -98.5q0 -84 182 -141
q34 -11 54 -17q149 -48 207.5 -109.5t58.5 -162.5q0 -130 -92.5 -210.5t-241.5 -80.5q-128 0 -217.5 48t-143.5 145zM162 -426v100q79 -18 143 -28.5t103 -10.5q60 0 90.5 20.5t30.5 61.5q0 44 -32.5 65t-101.5 21q-20 0 -31 -0.5t-22 -0.5v198h76v-102h29q109 0 166 -46
t57 -135q0 -91 -64 -139.5t-186 -48.5q-50 0 -115.5 11.5t-142.5 33.5z" />
    <glyph glyph-name="Cacute" unicode="&#x106;" horiz-adv-x="1485" 
d="M1364 1114q-105 114 -224 168.5t-263 54.5q-116 0 -226.5 -47t-191.5 -131q-84 -87 -126 -194.5t-42 -237.5q0 -102 25 -188t75 -158q88 -125 216.5 -192.5t277.5 -67.5q140 0 260 58t219 173v-231q-109 -79 -234.5 -119.5t-259.5 -40.5q-116 0 -226 34.5t-206 100.5
q-160 111 -244.5 273t-84.5 356q0 169 56.5 307.5t172.5 251.5q112 108 248 161.5t297 53.5q127 0 246 -38.5t235 -119.5v-227zM729 1610l204 348h201l-285 -348h-120z" />
    <glyph glyph-name="cacute" unicode="&#x107;" horiz-adv-x="920" 
d="M862 217v-182q-62 -37 -139.5 -55.5t-167.5 -18.5q-212 0 -341.5 134.5t-129.5 353.5q0 220 134 359.5t343 139.5q76 0 148.5 -16t136.5 -47v-168q-60 39 -124 59.5t-130 20.5q-154 0 -247 -96.5t-93 -256.5q0 -141 93.5 -236t234.5 -95q71 0 139 25t143 79zM410 1059
l204 348h201l-285 -348h-120z" />
    <glyph glyph-name="Ccaron" unicode="&#x10c;" horiz-adv-x="1485" 
d="M1364 1114q-105 114 -224 168.5t-263 54.5q-116 0 -226.5 -47t-191.5 -131q-84 -87 -126 -194.5t-42 -237.5q0 -102 25 -188t75 -158q88 -125 216.5 -192.5t277.5 -67.5q140 0 260 58t219 173v-231q-109 -79 -234.5 -119.5t-259.5 -40.5q-116 0 -226 34.5t-206 100.5
q-160 111 -244.5 273t-84.5 356q0 169 56.5 307.5t172.5 251.5q112 108 248 161.5t297 53.5q127 0 246 -38.5t235 -119.5v-227zM577 1958h121l174 -227l172 227h123l-197 -348h-196z" />
    <glyph glyph-name="ccaron" unicode="&#x10d;" horiz-adv-x="920" 
d="M862 217v-182q-62 -37 -139.5 -55.5t-167.5 -18.5q-212 0 -341.5 134.5t-129.5 353.5q0 220 134 359.5t343 139.5q76 0 148.5 -16t136.5 -47v-168q-60 39 -124 59.5t-130 20.5q-154 0 -247 -96.5t-93 -256.5q0 -141 93.5 -236t234.5 -95q71 0 139 25t143 79zM258 1407
h121l174 -227l172 227h123l-197 -348h-196z" />
    <glyph glyph-name="dcroat" unicode="&#x111;" horiz-adv-x="1186" 
d="M860 453q0 153 -85 246.5t-224 93.5q-138 0 -216.5 -85t-78.5 -235q0 -169 79 -264.5t218 -95.5q143 0 225 90.5t82 249.5zM1012 1550v-256h174v-129h-174v-1165h-152v166q-54 -99 -140 -152t-192 -53q-197 0 -317.5 135.5t-120.5 358.5q0 225 118 359t314 134
q114 0 198 -51.5t136 -153.5v422h-360v129h360v256h156z" />
    <glyph glyph-name="sfthyphen" unicode="&#xad;" horiz-adv-x="750" 
d="M141 535h467v-158h-467v158z" />
    <glyph glyph-name="periodcentered" unicode="&#x2219;" horiz-adv-x="604" 
d="M182 721q0 49 35 84t84 35q50 0 85.5 -35t35.5 -84q0 -50 -35.5 -84.5t-85.5 -34.5t-84.5 34.5t-34.5 84.5z" />
    <glyph glyph-name="Euro" horiz-adv-x="1208" 
d="M1133 283l-7 -193q-85 -64 -177 -96.5t-189 -32.5q-229 0 -390 159t-200 427h-166l23 102h133q-1 5 -1 13q-3 43 -3 59q0 14 1.5 35.5t3.5 48.5h-157l23 106h147q44 260 206.5 414t389.5 154q102 0 188.5 -35t167.5 -109v-190q-79 90 -164.5 135t-177.5 45
q-162 0 -277.5 -111.5t-148.5 -302.5h619l-33 -106h-602q-1 -15 -2 -38q-2 -36 -2 -46q0 -27 0.5 -42.5t1.5 -28.5l557 -1l-33 -102h-510q28 -195 143.5 -313.5t272.5 -118.5q96 0 183.5 40.5t179.5 127.5z" />
    <glyph glyph-name="Euro" unicode="&#x20ac;" horiz-adv-x="1208" 
d="M1133 283l-7 -193q-85 -64 -177 -96.5t-189 -32.5q-229 0 -390 159t-200 427h-166l23 102h133q-1 5 -1 13q-3 43 -3 59q0 14 1.5 35.5t3.5 48.5h-157l23 106h147q44 260 206.5 414t389.5 154q102 0 188.5 -35t167.5 -109v-190q-79 90 -164.5 135t-177.5 45
q-162 0 -277.5 -111.5t-148.5 -302.5h619l-33 -106h-602q-1 -15 -2 -38q-2 -36 -2 -46q0 -27 0.5 -42.5t1.5 -28.5l557 -1l-33 -102h-510q28 -195 143.5 -313.5t272.5 -118.5q96 0 183.5 40.5t179.5 127.5z" />
    </font>
</defs>
</svg>
